Торрент файл
скачать торрент магнет ссылка Добавлен: 25 мар 2016, 15:09
Размер: 1.33 ГБ
Сидеров: 0
Личеров: 0
Статус: (salma3)
Автор

СообщениеДобавлено: 25 мар 2016, 15:09 

Не в сети
Супермодератор
Аватара пользователя
Дата регистрации:
15 фев 2012, 16:44
Возраст: 27
Спасибо: 5131 / 2089
Сообщения: 17376

5-я волна / The 5th Wave

Страна: США
Жанр: Фантастика, боевик, триллер, приключения
Год выпуска: 2016
Продолжительность: 01:47:46
Перевод: Профессиональный (дублированный) Line
Cубтитры: нет
Режиссер: Дж. Блэйксон / J. Blakeson
В ролях: Хлоя Грейс Морец, Ник Дж. Робинсон, Рон Ливингстон, Мэгги Сифф, Алекс Роу, Мария Белло, Майка Монро, Лив Шрайбер, Закари Артур, Тони Револори

Описание
: Первая волна оставила за собой мглу. От второй успели убежать только самые везучие. Но едва ли можно назвать везучими тех, кто уцелел после третьей. А четвертая волна стерла все человеческие законы, взамен же установила свой, один-единственный: хочешь жить — не верь никому. И вот уже накатывает пятая волна…
Доп. информация: Без рекламы.

Качество видео: WEBRip
Формат видео: AVI
Видео: 720x304 (2.35:1), 25fps, XviD MPEG-4, ~ 1434 Kbps, 0.262 bit/pixel
Аудио: 48 kHz, AC3 Dolby Digital, 2/0 (L,R) ch, ~320 kbps
General
Complete name : D:\Фильмы\5ya.volna.avi
Format : AVI
Format/Info : Audio Video Interleave
File size : 1.33 GiB
Duration : 1h 47mn
Overall bit rate : 1 763 Kbps
Movie name : 5_ja.Volna.2016.D.WEBRip_by_Twi7ter
Director : Twi7ter
Genre : Fantasy/Action/Thriller/Adventure
Writing application : VirtualDubMod 1.5.10.3 (build 2550/release)
Original source form/Name : Movie
Video
ID : 0
Format : MPEG-4 Visual
Format profile : Advanced Simple@L5
Format settings, BVOP : 2
Format settings, QPel : No
Format settings, GMC : No warppoints
Format settings, Matrix : Default (H.263)
Muxing mode : Packed bitstream
Codec ID : XVID
Codec ID/Hint : XviD
Duration : 1h 47mn
Bit rate : 1 433 Kbps
Width : 720 pixels
Height : 304 pixels
Display aspect ratio : 2.35:1
Frame rate : 25.000 fps
Color space : YUV
Chroma subsampling : 4:2:0
Bit depth : 8 bits
Scan type : Progressive
Compression mode : Lossy
Bits/(Pixel*Frame) : 0.262
Stream size : 1.08 GiB (81%)
Writing library : XviD 66

Audio
ID : 1
Format : AC-3
Format/Info : Audio Coding 3
Mode extension : CM (complete main)
Format settings, Endianness : Big
Codec ID : 2000
Duration : 1h 47mn
Bit rate mode : Constant
Bit rate : 320 Kbps
Channel(s) : 2 channels
Channel positions : Front: L R
Sampling rate : 48.0 KHz
Frame rate : 31.250 fps (1536 spf)
Compression mode : Lossy
Stream size : 247 MiB (18%)
Alignment : Split accross interleaves
Interleave, duration : 40 ms (1.00 video frame)
Interleave, preload duratio : 500 ms




_________________



реклама партнёра


Вернуться к началу
 Профиль Отправить личное сообщение  
 
   Похожие торренты   Автор   Торрент   Размер 
В этой теме нет новых непрочитанных сообщений. 5-я волна / The 5th Wave [фантастика, боевик, триллер, приключения, 2016] BDRip 1080p, Dub

salma3

29 | 13

12.72 ГБ

В этой теме нет новых непрочитанных сообщений. 5-я волна / The 5th Wave [фантастика, боевик, триллер, приключения, 2016] BDRip-AVC, Dub [лицензия]

salma3

1 | 1

1.47 ГБ

В этой теме нет новых непрочитанных сообщений. 5-я волна / The 5th Wave [фантастика, боевик, триллер, приключения, 2016] BDRip, Dub [лицензия]

salma3

2946 | 138

1.46 ГБ

В этой теме нет новых непрочитанных сообщений. 5-я волна / The 5th Wave [фантастика, боевик, триллер, приключения, 2016] BDRip 720p, Dub [лицензия]

salma3

253 | 16

6 ГБ

В этой теме нет новых непрочитанных сообщений. Дэдпул / Deadpool [Фантастика, боевик, триллер, приключения, комедия, 2016] WEBRip 720p, Dub [Line]

salma3

8455 | 2152

3.94 ГБ

В этой теме нет новых непрочитанных сообщений. Белоснежка и Охотник 2 / The Huntsman: Winter's War [фэнтези, боевик, драма, приключения, 2016] WEBRip, Dub [Line]

salma3

15365 | 1075

1.46 ГБ

В этой теме нет новых непрочитанных сообщений. Кунг-фу Панда 3 / Kung Fu Panda 3 [Боевик, Комедия, Приключения, Семейный, 2016] WEBRip, Dub [Line]

salma3

18 | 0

1.31 ГБ


Начать новую тему Ответить на тему  [ 1 сообщение ] 




Для Мосгорсуда, Роскомнадзора и рекламодателей:: mosgorsud-torrent[собачка]yandex.ru