Торрент файл
скачать торрент магнет ссылка Добавлен: 24 мар 2016, 14:26
Размер: 1.46 ГБ
Сидеров: 23
Личеров: 7
Статус: (salma3)
Автор

СообщениеДобавлено: 24 мар 2016, 14:26 

Не в сети
Супермодератор
Аватара пользователя
Дата регистрации:
15 фев 2012, 16:44
Возраст: 28
Спасибо: 6593 / 2145
Сообщения: 44239
Страна: США
Жанр: Фантастика, комедия
Год выпуска: 2016
Продолжительность: 01:32:00
Перевод: Любительский (двухголосый закадровый) Parovoz Production
Cубтитры: нет

Режиссер: Майкл Полиш / Michael Polish

В ролях: Зак Перлман, Даг Хейли, Синтия Киршнер, Дэвид Шакелфорд, Энтони Андерсон, Дональд Фэйзон, Дэнни Мастерсон, Ларри Миллер, Анджела Кинси, Кирби Блисс Блэнтон...

Описание: Приключения двух ботанов, которые наткнулись на суперсексмодель....

Доп. информация: релиз без рекламы

Сэмпл: http://multi-up.com/1093951

Качество видео: WEB-DLRip Hot.Bot.2016.720p.NF.WEB-DL.x264.DD5.1-FGT
Формат видео: AVI
Видео: 720x304 (2.37:1), 25 fps, XviD build 73 ~2068 kbps avg, 0.38 bit/pixel
Аудио: 48 kHz, AC3 Dolby Digital, 2/0 (L,R) ch, ~192 kbps
ормат : AVI
Формат/Информация : Audio Video Interleave
Размер файла : 1,46 Гбайт
Продолжительность : 1 ч. 32 м.
Общий поток : 2270 Кбит/сек
Программа кодирования : VirtualDubMod 1.5.10.3 (build 2550/release)
Библиотека кодирования : VirtualDubMod build 2550/release

Видео
Идентификатор : 0
Формат : MPEG-4 Visual
Профиль формата : Advanced Simple@L5
Параметр BVOP формата : 1
Параметр QPel формата : Нет
Параметр GMC формата : Без точки перехода
Параметр матрицы формата : Выборочная
Идентификатор кодека : XVID
Идентификатор кодека/Подсказка : XviD
Продолжительность : 1 ч. 32 м.
Битрейт : 2068 Кбит/сек
Ширина : 720 пикселей
Высота : 304 пикселя
Соотношение сторон : 2,35:1
Частота кадров : 25,000 кадров/сек
Цветовое пространство : YUV
Субдискретизация насыщенности : 4:2:0
Битовая глубина : 8 бит
Тип развёртки : Прогрессивная
Метод сжатия : С потерями
Бит/(Пиксели*Кадры) : 0.378
Размер потока : 1,33 Гбайт (91%)
Библиотека кодирования : XviD 73

Аудио
Идентификатор : 1
Формат : AC-3
Формат/Информация : Audio Coding 3
Расширение режима : CM (complete main)
Параметр Endianness формата : Big
Идентификатор кодека : 2000
Продолжительность : 1 ч. 32 м.
Вид битрейта : Постоянный
Битрейт : 192 Кбит/сек
Каналы : 2 канала
Расположение каналов : Front: L R
Частота : 48,0 КГц
Частота кадров : 31,250 кадров/сек (1536 spf)
Метод сжатия : С потерями
Размер потока : 126 Мбайт (8%)
Выравнивание : Разделение по промежуткам
Продолжительность промежутка : 40 мс. (1,00 видеокадр)
Время предзагрузки промежутка : 500 мс.


_________________
Проголосуй за трекер Открытый торрент трекер - RUS-MEDIA.ORG

Проголосуй Открытый торрент трекер - RUS-MEDIA.ORG



реклама партнёра


Вернуться к началу
 Профиль Отправить личное сообщение  
 
   Похожие торренты   Автор   Торрент   Размер 
В этой теме нет новых непрочитанных сообщений. Монах и бес [Комедия, фантастика, 2016] WEB-DLRip AVC [iTunes]

marya111

794 | 87

2.05 ГБ

В этой теме нет новых непрочитанных сообщений. Недооформлен Монах и бес (комедия, фантастика, 2016) WEB-DLRip от Scarabey Данный торрент является блокированным, причина: недооформленный торрент

marya111

0 | 0

1.45 ГБ

В этой теме нет новых непрочитанных сообщений. Монах и бес (Комедия, фантастика, 2016) WEB-DLRip-AVC от ExKinoRay | iTunes

marya111

100 | 8

1.86 ГБ

В этой теме нет новых непрочитанных сообщений. Монах и бес (Комедия, фантастика, 2016) WEB-DLRip от Generalfilm | КПК | iTunes

marya111

327 | 16

470.41 МБ

В этой теме нет новых непрочитанных сообщений. Космический полицейский / Space Cop [фантастика, боевик, комедия, 2016] WEB-DLRip, Dvo

salma3

3831 | 403

1.37 ГБ

В этой теме нет новых непрочитанных сообщений. Охотники за привидениями / Ghostbusters [Фантастика, фэнтези, комедия, 2016] WEB-DLRip, Dub [iTunes]

marya111

0 | 0

747.79 МБ

В этой теме нет новых непрочитанных сообщений. Лавалантула 2 / 2 Lava 2 Lantula! [Ужасы, комедия, фантастика, 2016] WEB-DLRip 1080p, Mvo

salma3

68 | 32

3.04 ГБ


Начать новую тему Ответить на тему  [ 1 сообщение ] 




Для Мосгорсуда, Роскомнадзора и рекламодателей:: mosgorsud-torrent[собачка]yandex.ru