Торрент файл
скачать торрент магнет ссылка Добавлен: 24 мар 2016, 14:24
Размер: 1.46 ГБ
Сидеров: 1
Личеров: 0
Статус: (salma3)
Автор

СообщениеДобавлено: 24 мар 2016, 14:24 

Не в сети
Супермодератор
Аватара пользователя
Дата регистрации:
15 фев 2012, 16:44
Возраст: 27
Спасибо: 5139 / 2089
Сообщения: 17425
Страна: США
Жанр
: ужасы, триллер, детектив
Год выпуска: 2000
Продолжительность: 01:31:29

Перевод: Профессиональный (двухголосый закадровый)
Cубтитры: нет

Режиссер: Джеффри Райт / Geoffrey Wright

В ролях: Бриттани Мерфи, Джей Мор, Майкл Бьен, Джесси Брэдфорд, Натали Рэмси, Майкл Уэстон, DJ Куаллс, Дуглас Спэйн, Гэбриел Манн, Аманда Энка

Описание: Однажды в городке Черри Фоллс происходит убийство влюбленной парочки из местной школы. Шериф Маркен начинает расследование, но почти сразу же убивают еще одну девушку. Становится ясно, что маньяк убивает только девственников. И пока полиция пытается выйти на его след, молодежь сама находит способ своего спасения.

Качество видео: BDRip [CHERRY_FALLS_2000_BDREMUX_HDCLUB]
Формат видео
: AVI
Видео: 720x384 (1.88:1), 23.976 fps, XviD build 73 ~2075 kbps avg, 0.31 bit/pixel
Аудио: 48 kHz, AC3 Dolby Digital, 2/0 (L,R) ch, ~192 kbps

Общее
Полное имя : H:\Cherry.Falls.2000.bdrip_[1.46]_[teko].avi
Формат : AVI
Формат/Информация : Audio Video Interleave
Размер файла : 1,46 Гбайт
Продолжительность : 1 ч. 31 м.
Общий поток : 2277 Кбит/сек
Программа кодирования : VirtualDubMod 1.5.10.3 | http://www.virtualdub-fr.org || (build 2550/release)
Библиотека кодирования : VirtualDubMod build 2550/release

Видео
Идентификатор : 0
Формат : MPEG-4 Visual
Профиль формата : Advanced Simple@L5
Параметр BVOP формата : 2
Параметр QPel формата : Нет
Параметр GMC формата : Без точки перехода
Параметр матрицы формата : Выборочная
Идентификатор кодека : XVID
Идентификатор кодека/Подсказка : XviD
Продолжительность : 1 ч. 31 м.
Битрейт : 2076 Кбит/сек
Ширина : 720 пикселей
Высота : 384 пикселя
Соотношение сторон : 1,85:1
Частота кадров : 23,976 кадра/сек
Цветовое пространство : YUV
Субдискретизация насыщенности : 4:2:0
Битовая глубина : 8 бит
Тип развёртки : Прогрессивная
Метод сжатия : С потерями
Бит/(Пиксели*Кадры) : 0.313
Размер потока : 1,33 Гбайт (91%)
Библиотека кодирования : XviD 73

Аудио
Идентификатор : 1
Формат : AC-3
Формат/Информация : Audio Coding 3
Расширение режима : CM (complete main)
Параметр Endianness формата : Big
Идентификатор кодека : 2000
Продолжительность : 1 ч. 31 м.
Вид битрейта : Постоянный
Битрейт : 192 Кбит/сек
Каналы : 2 канала
Расположение каналов : Front: L R
Частота : 48,0 КГц
Битовая глубина : 16 бит
Метод сжатия : С потерями
Размер потока : 126 Мбайт (8%)
Выравнивание : Разделение по промежуткам
Продолжительность промежутка : 42 мс. (1,00 видеокадр)
Время предзагрузки промежутка : 500 мс.


_________________



реклама партнёра


Вернуться к началу
 Профиль Отправить личное сообщение  
 
   Похожие торренты   Автор   Торрент   Размер 
В этой теме нет новых непрочитанных сообщений. Убийства в Черри-Фолс / Cherry Falls [ужасы, триллер, комедия, детектив, 2000] BDRip 720p, Dvo

salma3

25 | 41

4.35 ГБ

В этой теме нет новых непрочитанных сообщений. Убийства в Черри-Фолс / Cherry Falls [ужасы, триллер, детектив, 2000] BDRemux 1080p, Dvo

salma3

1 | 0

24.32 ГБ

В этой теме нет новых непрочитанных сообщений. Черри 2000 / Cherry 2000 [фантастика, боевик, приключения, 1987] BDRip 720p, Mvo+2Dvo+Avo+Sub

salma3

62 | 8

4.22 ГБ

В этой теме нет новых непрочитанных сообщений. Темнота наступает / Darkness Falls [ужасы, триллер, детектив, 2003] BDRip, Dub

salma3

101 | 9

1.45 ГБ

В этой теме нет новых непрочитанных сообщений. Иллюзия убийства / F/X [Триллер, детектив, комедия, 1986] BDRip 1080p, Mvo+Avo+Sub

salma3

106 | 9

8.42 ГБ

В этой теме нет новых непрочитанных сообщений. Падает тень / Zombie Warz: Falls the Shadow [ужасы, боевик, триллер, 2011] BDRip 720p, Dvo [НТВ+]

salma3

10 | 3

4.49 ГБ

В этой теме нет новых непрочитанных сообщений. Падает тень / Zombie Warz: Falls the Shadow [ужасы, боевик, триллер, 2011] BDRip 1080p, Dvo [НТВ+]

salma3

9 | 2

7.07 ГБ


Начать новую тему Ответить на тему  [ 1 сообщение ] 




Для Мосгорсуда, Роскомнадзора и рекламодателей:: mosgorsud-torrent[собачка]yandex.ru