Торрент файл
скачать торрент магнет ссылка Добавлен: 23 мар 2016, 17:26
Размер: 1.45 ГБ
Сидеров: 1
Личеров: 0
Статус: (salma3)
Автор

СообщениеДобавлено: 23 мар 2016, 17:26 

Не в сети
Супермодератор
Аватара пользователя
Дата регистрации:
15 фев 2012, 16:44
Возраст: 27
Спасибо: 5139 / 2089
Сообщения: 17411
Страна: США
Жанр: Боевик . боевые искусства
Год выпуска: 1992
Продолжительность: 1:24:46

Перевод: Авторский (одноголосый закадровый) В. Дохалов
Cубтитры: нет
Режиссер: Фред Х. Дресч / Fred H. Dresch

В ролях: Джулиан Ли, Туппер Каллам, С. Эдвард МаНил, John Kallo, Кристоф Кларк, Линн Харт, Терри О’Куинн, Джефф Остин, Мако, Рэймонд Перл

Описание: Питер, сын богатого бизнесмена, не хочет заниматься тэквандо, но его отец заставляет его, говоря, что это поможет ему стать настоящим мужчиной. У мальчика появляется возможность убедиться в пользе этого вида спорта, когда мафия и коррумпированные полицейские начинают охотиться за ним как за свидетелем убийства. Если бы не тренер, то его жизнь оборвалась бы в очень нежном возрасте.

Доп. информация: За звуковую дорожку спасибо Evil ED 86

Сэмпл: https://www.sendspace.com/file/ve5em0

Качество видео: DVDRip
Формат видео: AVI
Видео: XviD MPEG-4 , 640x480 (1.33:1) , 25.000 fps , 2 251 Kbps
Аудио: АC3 , 48 kHz , 192.00 kbps avg , 2/0 (L,R) ch
Complete name Мой Самурай 1992.avi
Format : AVI
Format/Info : Audio Video Interleave
File size : 1.45 GiB
Duration : 1h 24mn
Overall bit rate : 2 453 Kbps
Writing application : VirtualDubMod 1.5.10.3 | http://www.virtualdub-fr.org || (build 2550/release)
Writing library : VirtualDub build 35491/release

Video
ID : 0
Format : MPEG-4 Visual
Format profile : Advanced Simple@L5
Format settings, BVOP : 1
Format settings, QPel : No
Format settings, GMC : No warppoints
Format settings, Matrix : Custom
Codec ID : XVID
Codec ID/Hint : XviD
Duration : 1h 24mn
Bit rate : 2 251 Kbps
Width : 640 pixels
Height : 480 pixels
Display aspect ratio : 4:3
Frame rate : 25.000 fps
Color space : YUV
Chroma subsampling : 4:2:0
Bit depth : 8 bits
Scan type : Progressive
Compression mode : Lossy
Bits/(Pixel*Frame) : 0.293
Stream size : 1.33 GiB (92%)
Writing library : XviD 73

Audio
ID : 1
Format : AC-3
Format/Info : Audio Coding 3
Mode extension : CM (complete main)
Format settings, Endianness : Big
Codec ID : 2000
Duration : 1h 24mn
Bit rate mode : Constant
Bit rate : 192 Kbps
Channel(s) : 2 channels
Channel positions : Front: L R
Sampling rate : 48.0 KHz
Frame rate : 31.250 fps (1536 spf)
Compression mode : Lossy
Stream size : 116 MiB (8%)
Alignment : Aligned on interleaves
Interleave, duration : 40 ms (1.00 video frame)
Interleave, preload duratio : 512 ms


_________________



реклама партнёра


Вернуться к началу
 Профиль Отправить личное сообщение  
 
   Похожие торренты   Автор   Торрент   Размер 
В этой теме нет новых непрочитанных сообщений. Американский самурай / American Samurai [Боевик, 1992] DVDRip, Avo [Гаврилов]

salma3

2 | 3

1.47 ГБ

В этой теме нет новых непрочитанных сообщений. Мастер / Long hang tian xia [Боевик, боевые искусства, 1992] BDRip 1080p, Avo

salma3

64 | 7

5.98 ГБ

В этой теме нет новых непрочитанных сообщений. Сильнейший удар: Бой до смерти / Shootfighter: Fight to the Death [Боевик, боевые искусства, 1992] BDRip 1080p, Dvo

salma3

82 | 25

7.06 ГБ

В этой теме нет новых непрочитанных сообщений. Полицейский-самурай / Samurai Cop [боевик, триллер, криминал, 1991] HDRip, Avo

salma3

60 | 3

1.22 ГБ

В этой теме нет новых непрочитанных сообщений. Вин Чун / Wing Chun [Боевик, боевые искусства, 1994] DVDRip-AVC, Avo

salma3

273 | 35

2.04 ГБ

В этой теме нет новых непрочитанных сообщений. Каратистка / K.G / Karate Girl [Боевик, Боевые Искусства, 2011] DVDRip, Avo

salma3

204 | 10

1.39 ГБ

В этой теме нет новых непрочитанных сообщений. Тайные соперники / Nan quan bei tui [Боевик, боевые искусства, 1976] DVDRip-AVC, Avo

salma3

54 | 17

1.89 ГБ


Начать новую тему Ответить на тему  [ 1 сообщение ] 




Для Мосгорсуда, Роскомнадзора и рекламодателей:: mosgorsud-torrent[собачка]yandex.ru