Торрент файл
скачать торрент магнет ссылка Добавлен: 22 мар 2016, 21:50
Размер: 1.45 ГБ
Сидеров: 152
Личеров: 9
Статус: (salma3)
Автор

СообщениеДобавлено: 22 мар 2016, 21:50 

Не в сети
Супермодератор
Аватара пользователя
Дата регистрации:
15 фев 2012, 16:44
Возраст: 27
Спасибо: 5139 / 2089
Сообщения: 17432
Перевод: Любительский (двухголосый)
Формат: HDRip, AVI, XviD, AC3
Страна: США
Режиссер: Джаред Кон
Жанр: ужасы
Продолжительность: 01:28:27
Год выпуска: 2016
В ролях: Эрик Бальфур, Бьянка А. Сантос, Лил Ромео, Патрик Малдун, Хизер Том, Брендан Уэйн, Марина Сиртис, Эми Эргил, Тони Кечэм, Jake T. Getman

Описание: Жители небольшого городка обнаруживают, что в глубине леса скрывается нечто более опасное, чем волки. Вскоре, начинают умирать животные, а потом люди.



Видео: 720x400 (16:9), 23.976 fps, XviD MPEG-4, Simple@L5 ~ 1953 Kbps, 0.283 bit/pixel
Аудио #1: Russian: AC3, 48 kHz, 2.0 ch, 192 Kbps Любительский (двухголосый)
Aудио #2: English: AC3, 48 kHz, 2.0 ch, 192 Kbps [Оригинал]

General
Complete name : D:\torrent\Little.Dead.Rotting.Hood.2016.HDRip.avi
Format : AVI
Format/Info : Audio Video Interleave
File size : 1.45 GiB
Duration : 1h 28mn
Overall bit rate : 2 352 Kbps
Writing application : VirtualDubMod 1.5.10.3 | www.virtualdub-fr.org || (build 2550/release)
Writing library : VirtualDubMod build 2550/release

Video
ID : 0
Format : MPEG-4 Visual
Format profile : Advanced Simple@L5
Format settings, BVOP : 1
Format settings, QPel : No
Format settings, GMC : No warppoints
Format settings, Matrix : Custom
Codec ID : XVID
Codec ID/Hint : XviD
Duration : 1h 28mn
Bit rate : 1 953 Kbps
Width : 720 pixels
Height : 400 pixels
Display aspect ratio : 16:9
Frame rate : 23.976 fps
Color space : YUV
Chroma subsampling : 4:2:0
Bit depth : 8 bits
Scan type : Progressive
Compression mode : Lossy
Bits/(Pixel*Frame) : 0.283
Stream size : 1.21 GiB (83%)
Writing library : XviD 73

Audio #1
ID : 1
Format : AC-3
Format/Info : Audio Coding 3
Mode extension : CM (complete main)
Format settings, Endianness : Big
Codec ID : 2000
Duration : 1h 28mn
Bit rate mode : Constant
Bit rate : 192 Kbps
Channel(s) : 2 channels
Channel positions : Front: L R
Sampling rate : 48.0 KHz
Compression mode : Lossy
Stream size : 121 MiB (8%)
Alignment : Split accross interleaves
Interleave, duration : 42 ms (1.00 video frame)
Interleave, preload duration : 500 ms

Audio #2
ID : 2
Format : AC-3
Format/Info : Audio Coding 3
Mode extension : CM (complete main)
Format settings, Endianness : Big
Codec ID : 2000
Duration : 1h 28mn
Bit rate mode : Constant
Bit rate : 192 Kbps
Channel(s) : 2 channels
Channel positions : Front: L R
Sampling rate : 48.0 KHz
Compression mode : Lossy
Stream size : 121 MiB (8%)
Alignment : Split accross interleaves
Interleave, duration : 42 ms (1.00 video frame)
Interleave, preload duration : 500 ms


_________________



реклама партнёра


Вернуться к началу
 Профиль Отправить личное сообщение  
 
   Похожие торренты   Автор   Торрент   Размер 
В этой теме нет новых непрочитанных сообщений. Маленькая мертвая шапочка / Little Dead Rotting Hood [ужасы, 2016] BDRip 720p, Dvo

salma3

577 | 59

3.39 ГБ

В этой теме нет новых непрочитанных сообщений. Красная шапочка  / Little Red Riding Hood (Рене Перез) [ужасы, фэнтези, 2015] HDRip, dvo

Dracon

8 | 3

1.36 ГБ

В этой теме нет новых непрочитанных сообщений. Подземелье мертвых / Мертвая шахта / Dead Mine [ужасы, боевик, 2012] HDRip, Mvo

salma3

312 | 9

1.36 ГБ

В этой теме нет новых непрочитанных сообщений. Красная шапочка  / Little Red Riding Hood (Рене Перез) [ужасы, фэнтези, 2015] BDRip 720p, dvo

Dracon

10 | 3

3.09 ГБ

В этой теме нет новых непрочитанных сообщений. Мертвая зона / The Dead Zone [ужасы, триллер, драма, детектив, 1983] BDRip, Mvo [ТВ3]

salma3

43 | 8

1.46 ГБ

В этой теме нет новых непрочитанных сообщений. Подземелье мертвых / Мертвая шахта / Dead Mine [Ужасы, боевик, 2012] Blu-Ray Remux 1080p, Mvo+Sub

salma3

25 | 5

19.68 ГБ

В этой теме нет новых непрочитанных сообщений. Подземелье мертвых / Мертвая шахта / Dead Mine [Ужасы, боевик, 2012] BDRip 720p, Mvo+Sub

salma3

60 | 10

4.63 ГБ


Начать новую тему Ответить на тему  [ 1 сообщение ] 




Для Мосгорсуда, Роскомнадзора и рекламодателей:: mosgorsud-torrent[собачка]yandex.ru