Торрент файл
скачать торрент магнет ссылка Добавлен: 22 мар 2016, 21:49
Размер: 1.37 ГБ
Сидеров: 179
Личеров: 19
Статус: (salma3)
Автор

СообщениеДобавлено: 22 мар 2016, 21:49 

Не в сети
Супермодератор
Аватара пользователя
Дата регистрации:
15 фев 2012, 16:44
Возраст: 27
Спасибо: 5143 / 2090
Сообщения: 17514
Перевод: Любительский (одноголосый)
Формат: DVDRip, AVI, XviD, AC3
Страна: США
Режиссер: Кевин Ричмонд
Жанр: ужасы
Продолжительность: 01:19:23
Год выпуска: 2015
В ролях: Эдди Миллер, Дахлия Леголт, Брэнди Рени Браун, Альма Хилл, Патрик Грин, Тейлор-Грейс Девис

Описание: Прошло пять лет после того, как человечество поразил страшный вирус, после которого большая часть населения превратилась в зомби. Оставшиеся в живых девушки Нита и Бриджит думают, что остались последними выжившими после катастрофы, не подозревая, что поблизости находится ещё одна группа переживших её, для которых каждый закат тоже может оказаться последним из-за общей опасности быть убитыми полчищами кровожадных зомби.



Видео: 720x400 (16:9), 23.976 fps, XviD MPEG-4, Simple@L5 ~ 2266 Kbps, 0.328 bit/pixel
Аудио: AC3, 48 kHz, 2.0 ch, 192 Kbps

General
Complete name : D:\torrent\One Last Sunset Redux2015.avi
Format : AVI
Format/Info : Audio Video Interleave
File size : 1.37 GiB
Duration : 1h 19mn
Overall bit rate : 2 468 Kbps
Writing application : VirtualDubMod 1.5.10.2 (build 2540/release)
Writing library : VirtualDubMod build 2540/release

Video
ID : 0
Format : MPEG-4 Visual
Format profile : Advanced Simple@L5
Format settings, BVOP : 1
Format settings, QPel : No
Format settings, GMC : No warppoints
Format settings, Matrix : Default (MPEG)
Codec ID : XVID
Codec ID/Hint : XviD
Duration : 1h 19mn
Bit rate : 2 266 Kbps
Width : 720 pixels
Height : 400 pixels
Display aspect ratio : 16:9
Frame rate : 23.976 fps
Color space : YUV
Chroma subsampling : 4:2:0
Bit depth : 8 bits
Scan type : Progressive
Compression mode : Lossy
Bits/(Pixel*Frame) : 0.328
Stream size : 1.26 GiB (92%)
Writing library : XviD 73

Audio
ID : 1
Format : AC-3
Format/Info : Audio Coding 3
Mode extension : CM (complete main)
Format settings, Endianness : Big
Codec ID : 2000
Duration : 1h 19mn
Bit rate mode : Constant
Bit rate : 192 Kbps
Channel(s) : 2 channels
Channel positions : Front: L R
Sampling rate : 48.0 KHz
Compression mode : Lossy
Stream size : 109 MiB (8%)
Alignment : Split accross interleaves
Interleave, duration : 42 ms (1.00 video frame)
Interleave, preload duration : 500 ms


_________________



реклама партнёра


Вернуться к началу
 Профиль Отправить личное сообщение  
 
   Похожие торренты   Автор   Торрент   Размер 
В этой теме нет новых непрочитанных сообщений. Ma PA Redux [RPG, 3D, 2015] [RePack]

Tobus

1 | 0

509.6 МБ

В этой теме нет новых непрочитанных сообщений. GTA 5 / Grand Theft Auto V - Redux [v.1.0.678.1] [+DLC] [2015] [RePack]

vitalikmd

88 | 194

62.81 ГБ

В этой теме нет новых непрочитанных сообщений. Cast of the Seven Godsends - Redux [Arcade, Adventure, 2015] [RePack]

Sykre

1 | 1

437.2 МБ

В этой теме нет новых непрочитанных сообщений. Последний дом на Семетри Лэйн / The Last House on Cemetery Lane [ужасы, 2015] WEB-DL 720p, Dvo+Sub

salma3

177 | 8

2.41 ГБ

В этой теме нет новых непрочитанных сообщений. Чужой против Хищника : Возвращение / AVP Redemption (боевики, ужасы, фантастика, короткометражный, 2015) WEB-DLRip |L1

marya111

320 | 2

230.21 МБ

В этой теме нет новых непрочитанных сообщений. Последний поворот / Lemon Tree Passage [Ужасы, триллер, 2015] HDRip, Dub [iTunes]

salma3

208 | 56

1.45 ГБ

В этой теме нет новых непрочитанных сообщений. Дом страха / Последний обряд / Demonic (Уилл Кэнон) [Ужасы,Триллер, 2015] HDRip, Mvo

Dracon

2438 | 154

1.37 ГБ


Начать новую тему Ответить на тему  [ 1 сообщение ] 




Для Мосгорсуда, Роскомнадзора и рекламодателей:: mosgorsud-torrent[собачка]yandex.ru