Торрент файл
скачать торрент магнет ссылка Добавлен: 22 мар 2016, 11:46
Размер: 1.46 ГБ
Сидеров: 2
Личеров: 0
Статус: (salma3)
Автор

СообщениеДобавлено: 22 мар 2016, 11:46 

Не в сети
Супермодератор
Аватара пользователя
Дата регистрации:
15 фев 2012, 16:44
Возраст: 27
Спасибо: 5136 / 2089
Сообщения: 17409
Страна: США
Жанр: ужасы
Годы выпуска: 1977
Продолжительность: 01:17:58

Перевод: Авторский (одноголосый закадровый) Алексеев Антон
Субтитры: нет
Оригинальная аудиодорожка: английский

Режиссер: Джордж Бэрри / George Barry

В ролях: Демин Холл, Уильям Расс, Джули Риттер, Линда Бонд, Патрик Спенс-Томас, Роза Люксембург, Дэйв Марш, Эд Олдани

Описание: Как-то демон увидел у реки прекрасную девушку и влюбился в неё. А так как кроме постели он ничего себе представить не мог, то из его похотливых мыслей материализовалась кровать.

Доп. информация:

Качество видео: BDRip | Diablo/1080p BD-Remux
Формат видео: AVI
Видео: 720x512 (1.41:1), 23.976 fps, XviD build 73 ~2279 kbps avg, 0.26 bit/pixel
Аудио 1: 48 kHz, AC3 Dolby Digital, 2/0 (L,R) ch, ~192 kbps Алексеев
Аудио 2: 48 kHz, AC3 Dolby Digital, 2/0 (L,R) ch, ~192 kbps оригинал
General
Complete name : C:\Death.Bed.The.Bed.That.Eats.1977.BDRip.AVO_by_LBS.avi
Format : AVI
Format/Info : Audio Video Interleave
File size : 1.46 GiB
Duration : 1h 17mn
Overall bit rate : 2 678 Kbps
Director : Last Boy Scout
Writing application : VirtualDubMod 1.5.10.3 | http://www.virtualdub-fr.org || (build 2550/release)
Copyright : rutracker.org 22.03.2016
Comment : BDRip AVO (Алексеев) + Original (Eng)

Video
ID : 0
Format : MPEG-4 Visual
Format profile : Advanced Simple@L5
Format settings, BVOP : 1
Format settings, QPel : No
Format settings, GMC : No warppoints
Format settings, Matrix : Custom
Codec ID : XVID
Codec ID/Hint : XviD
Duration : 1h 17mn
Bit rate : 2 280 Kbps
Width : 720 pixels
Height : 512 pixels
Display aspect ratio : 1.406
Frame rate : 23.976 fps
Color space : YUV
Chroma subsampling : 4:2:0
Bit depth : 8 bits
Scan type : Progressive
Compression mode : Lossy
Bits/(Pixel*Frame) : 0.258
Stream size : 1.24 GiB (85%)
Writing library : XviD 73

Audio #1
ID : 1
Format : AC-3
Format/Info : Audio Coding 3
Mode extension : CM (complete main)
Format settings, Endianness : Big
Codec ID : 2000
Duration : 1h 17mn
Bit rate mode : Constant
Bit rate : 192 Kbps
Channel(s) : 2 channels
Channel positions : Front: L R
Sampling rate : 48.0 KHz
Bit depth : 16 bits
Compression mode : Lossy
Stream size : 107 MiB (7%)
Alignment : Split accross interleaves
Interleave, duration : 42 ms (1.00 video frame)
Interleave, preload duration : 500 ms

Audio #2
ID : 2
Format : AC-3
Format/Info : Audio Coding 3
Mode extension : CM (complete main)
Format settings, Endianness : Big
Codec ID : 2000
Duration : 1h 17mn
Bit rate mode : Constant
Bit rate : 192 Kbps
Channel(s) : 2 channels
Channel positions : Front: L R
Sampling rate : 48.0 KHz
Bit depth : 16 bits
Compression mode : Lossy
Stream size : 107 MiB (7%)
Alignment : Split accross interleaves
Interleave, duration : 42 ms (1.00 video frame)
Interleave, preload duration : 500 ms



_________________



реклама партнёра


Вернуться к началу
 Профиль Отправить личное сообщение  
 
   Похожие торренты   Автор   Торрент   Размер 
В этой теме нет новых непрочитанных сообщений. Людоед / Ravenous [ужасы, триллер, 1999] BDRip 720p, Mvo+Avo+Sub

salma3

80 | 4

6.56 ГБ

В этой теме нет новых непрочитанных сообщений. Мальчики едят девочек / Boy Eats Girl [Ужасы, комедия, 2005] BDRip 720p, Mvo

salma3

38 | 17

5.01 ГБ

В этой теме нет новых непрочитанных сообщений. Людоед / Ravenous [Триллер, мистика, ужасы, 1999] BDRip 1080p, Mvo+Avo+Sub

salma3

63 | 5

8.39 ГБ

В этой теме нет новых непрочитанных сообщений. Автомобиль-убийца / The Car [Триллер, детектив, ужасы, 1977] BDRip 720p, Dub

salma3

65 | 8

4.37 ГБ

В этой теме нет новых непрочитанных сообщений. На волне ужаса / Shock Waves [ужасы, фантастика, детектив, 1977] BDRip, Avo

salma3

40 | 3

1.46 ГБ

В этой теме нет новых непрочитанных сообщений. Чужая дочь / Audrey Rose [ужасы, фэнтези, триллер, драма, 1977] BDRip 720p, Mvo+Sub

salma3

13 | 4

6.77 ГБ

В этой теме нет новых непрочитанных сообщений. Чужая дочь / Audrey Rose [ужасы, фэнтези, триллер, драма, 1977] BDRip 1080p, Mvo+Sub

salma3

7 | 5

15.73 ГБ


Начать новую тему Ответить на тему  [ 1 сообщение ] 




Для Мосгорсуда, Роскомнадзора и рекламодателей:: mosgorsud-torrent[собачка]yandex.ru