Торрент файл
скачать торрент магнет ссылка Добавлен: 21 мар 2016, 16:23
Размер: 2.18 ГБ
Сидеров: 32
Личеров: 1
Статус: (salma3)
Автор

СообщениеДобавлено: 21 мар 2016, 16:23 

Не в сети
Супермодератор
Аватара пользователя
Дата регистрации:
15 фев 2012, 16:44
Возраст: 27
Спасибо: 5121 / 2089
Сообщения: 17342
Перевод: Профессиональный (полное дублирование) (Лицензия)
Cубтитры: Русские, Английские SRT
Формат: BDRip-AVC, MKV, H.264, AC3
Страна: США
Режиссер: Боаз Якин / Boaz Yakin
Жанр: боевик, триллер, криминал
Продолжительность: 01:34:37
Год выпуска: 2012

В ролях: Джейсон Стэйтем / Jason Statham (Luke Wright), Катрин Чан / Catherine Chan (Mei), Роберт Джон Бёрк / Robert John Burke (Captain Wolf), Джеймс Хонг / James Hong (Han Jiao),

Описание: Бывший агент элитных спецслужб спасает девочку с уникальными способностями из цепких лап Нью-Йоркской мафии. Она - единственная, кто знает код от сейфа, где хранятся миллионы долларов китайских Триад. И теперь только профессионал может защитить ее от мафии, азиатских ассасинов и коррумпированных полицейских. На улицах Нью-Йорка развернется погоня за девочкой, которой очень повезло с Защитником...



Видео: 1040 x 442 (2,35:1), 23,976 fps, MPEG4 AVC (х264) ,~2406 Kbps, 0.218 bit/pixel
Аудио #1: Русский: 48 kHz, AC3 Dolby Digital, 3/2 (L,C,R,l,r) + LFE ch, ~448 kbps avg [Профессиональный (полное дублирование)]
Аудио #2: Английский: 48 kHz, AC3 Dolby Digital, 3/2 (L,C,R,l,r) + LFE ch, ~448 kbps [Оригинал]

Общее
Уникальный идентификатор : 205328936970253144155823253018937508592 (0x9A78EA3161FC0194A224790F0A95C2F0)
Полное имя : E:\Закачка-2\Zaschitnik.2012.DUAL.BDRip-AVC.AC3.-HQ-ViDEO.mkv
Формат : Matroska
Версия формата : Version 2
Размер файла : 2,18 Гбайт
Продолжительность : 1 ч. 34 м.
Общий поток : 3301 Кбит/сек
Название фильма : Safe (2012) - HQ-ViDEO
Дата кодирования : UTC 2012-08-26 13:57:16
Программа кодирования : mkvmerge v5.7.0 ('The Whirlwind') built on Jul 8 2012 20:08:51
Библиотека кодирования : libebml v1.2.3 + libmatroska v1.3.0

Видео
Идентификатор : 1
Формат : AVC
Формат/Информация : Advanced Video Codec
Профиль формата :
Параметр CABAC формата : Да
Параметр ReFrames формата : 15 кадров
Идентификатор кодека : V_MPEG4/ISO/AVC
Продолжительность : 1 ч. 34 м.
Битрейт : 2406 Кбит/сек
Ширина : 1040 пикселей
Высота : 442 пикселя
Соотношение сторон : 2,35:1
Режим частоты кадров : Постоянный
Частота кадров : 23,976 (24000/1001) кадра/сек
Цветовое пространство : YUV
Субдискретизация насыщенности : 4:2:0
Битовая глубина : 8 бит
Тип развёртки : Прогрессивная
Бит/(Пиксели*Кадры) : 0.218
Размер потока : 1,55 Гбайт (71%)
Заголовок : Vaippp
Библиотека кодирования : x264 core 125 r2208 d9d2288
Настройки программы : cabac=1 / ref=15 / deblock=1:-2:-1 / analyse=0x3:0x133 / me=umh / subme=10 / psy=1 / psy_rd=1.00:0.03 / mixed_ref=1 / me_range=40 / chroma_me=1 / trellis=2 / 8x8dct=1 / cqm=0 / deadzone=21,11 / fast_pskip=0 / chroma_qp_offset=-3 / threads=12 / lookahead_threads=2 / sliced_threads=0 / nr=0 / decimate=0 / interlaced=0 / bluray_compat=0 / constrained_intra=0 / bframes=12 / b_pyramid=2 / b_adapt=2 / b_bias=0 / direct=3 / weightb=1 / open_gop=0 / weightp=2 / keyint=240 / keyint_min=22 / scenecut=40 / intra_refresh=0 / rc_lookahead=60 / rc=2pass / mbtree=0 / bitrate=2406 / ratetol=1.0 / qcomp=0.65 / qpmin=0 / qpmax=69 / qpstep=4 / cplxblur=20.0 / qblur=0.5 / vbv_maxrate=50000 / vbv_bufsize=62500 / nal_hrd=none / ip_ratio=1.40 / pb_ratio=1.37 / aq=1:0.85 / zones=125428,136132,q=37
Язык : English
Default : Да
Forced : Нет
Цветовой диапазон : Limited
Основные цвета : BT.709
Характеристики трансфера : BT.709
Коэффициенты матрицы : BT.709

Аудио #1
Идентификатор : 2
Формат : AC-3
Формат/Информация : Audio Coding 3
Расширение режима : CM (complete main)
Параметр Endianness формата : Big
Идентификатор кодека : A_AC3
Продолжительность : 1 ч. 34 м.
Вид битрейта : Постоянный
Битрейт : 448 Кбит/сек
Каналы : 6 каналов
Расположение каналов : Front: L C R, Side: L R, LFE
Частота : 48,0 КГц
Частота кадров : 31,250 кадров/сек (1536 spf)
Метод сжатия : С потерями
Размер потока : 303 Мбайт (14%)
Заголовок : DUB@BD-RUS
Язык : Russian
Default : Да
Forced : Да

Аудио #2
Идентификатор : 3
Формат : AC-3
Формат/Информация : Audio Coding 3
Расширение режима : CM (complete main)
Параметр Endianness формата : Big
Идентификатор кодека : A_AC3
Продолжительность : 1 ч. 34 м.
Вид битрейта : Постоянный
Битрейт : 448 Кбит/сек
Каналы : 6 каналов
Расположение каналов : Front: L C R, Side: L R, LFE
Частота : 48,0 КГц
Частота кадров : 31,250 кадров/сек (1536 spf)
Метод сжатия : С потерями
Размер потока : 303 Мбайт (14%)
Заголовок : Original
Язык : English
Default : Нет
Forced : Нет

Текст #1
Идентификатор : 4
Формат : UTF-8
Идентификатор кодека : S_TEXT/UTF8
Идентификатор кодека/Информация : UTF-8 Plain Text
Язык : Russian
Default : Нет
Forced : Нет

Текст #2
Идентификатор : 5
Формат : UTF-8
Идентификатор кодека : S_TEXT/UTF8
Идентификатор кодека/Информация : UTF-8 Plain Text
Язык : English
Default : Нет
Forced : Нет

Меню
00:00:00.000 : en:00:00:00.000
00:04:42.282 : en:00:04:42.282
00:06:50.327 : en:00:06:50.327
00:09:57.889 : en:00:09:57.889
00:14:03.718 : en:00:14:03.718
00:17:52.613 : en:00:17:52.613
00:20:48.289 : en:00:20:48.289
00:24:09.990 : en:00:24:09.990
00:29:30.977 : en:00:29:30.977
00:35:33.548 : en:00:35:33.548
00:40:11.868 : en:00:40:11.868
00:44:33.838 : en:00:44:33.838
00:47:28.679 : en:00:47:28.679
00:53:31.458 : en:00:53:31.458
00:56:21.336 : en:00:56:21.336
01:00:05.143 : en:01:00:05.143
01:02:59.401 : en:01:02:59.401
01:08:03.621 : en:01:08:03.621
01:11:55.311 : en:01:11:55.311
01:15:32.820 : en:01:15:32.820
01:17:50.541 : en:01:17:50.541
01:20:56.101 : en:01:20:56.101
01:24:25.185 : en:01:24:25.185
01:27:11.268 : en:01:27:11.268



Релиз от:


_________________



реклама партнёра


Вернуться к началу
 Профиль Отправить личное сообщение  
 
   Похожие торренты   Автор   Торрент   Размер 
В этой теме нет новых непрочитанных сообщений. Защитник / Safe [боевик, триллер, криминал, 2012] BDRip, Avo

salma3

4 | 1

1.46 ГБ

В этой теме нет новых непрочитанных сообщений. Не безопасно для работы /  Not Safe for Work [триллер, 2014] BDRip 720p, Dub [Лицензия]

Dracon

2 | 2

5.24 ГБ

В этой теме нет новых непрочитанных сообщений. Заложница: Дилогия / Taken: Dilogy [боевик, триллер, криминал , 2008-2012] BDRip, Dub

salma3

123 | 15

2.91 ГБ

В этой теме нет новых непрочитанных сообщений. Шкала агрессии / The Aggression Scale [боевик, триллер, криминал, 2012] BDRip, Dvo [НТВ+]

salma3

21 | 2

1.37 ГБ

В этой теме нет новых непрочитанных сообщений. Контрабанда / Contraband [боевик, триллер, драма, криминал, 2012] BDRip 720p, Dub+Avo+Sub

salma3

108 | 33

7.63 ГБ

В этой теме нет новых непрочитанных сообщений. Петля времени / Looper [фантастика, боевик, триллер, криминал, 2012] BDRip 720p, Dub+Avo [Лицензия]

salma3

74 | 4

4.37 ГБ

В этой теме нет новых непрочитанных сообщений. Перекресток смерти / True Justice [Боевик, триллер, драма, криминал, 2012] BDRip 720p, Dub [РЕН ТВ]

salma3

16 | 5

3.17 ГБ


Начать новую тему Ответить на тему  [ 1 сообщение ] 




Для Мосгорсуда, Роскомнадзора и рекламодателей:: mosgorsud-torrent[собачка]yandex.ru