Торрент файл
скачать торрент магнет ссылка Добавлен: 20 мар 2016, 22:22
Размер: 1.49 ГБ
Сидеров: 2
Личеров: 1
Статус: (salma3)
Автор

СообщениеДобавлено: 20 мар 2016, 22:22 

Не в сети
Супермодератор
Аватара пользователя
Дата регистрации:
15 фев 2012, 16:44
Возраст: 27
Спасибо: 5143 / 2090
Сообщения: 17514
Страна: США
Жанр: драма, мелодрама
Год выпуска: 1998
Продолжительность: 01:36:48

Перевод: Авторский (одноголосый закадровый) [Сергей Кузнецов]

Режиссер: Дэн Айрлэнд / Dan Ireland

В ролях: Винсент Д’Онофрио, Сальма Хайек, Томас Джейн, Оливия д’Або, Шон Майкл Ховард, Итан Хоук, Кимберли Скотт

Описание:
Мэри Кармен влюблена в Гари, актера, играющего в фильмах для взрослых. В него же влюблен и Валентино. Жизнь всех троих сильно меняется, когда становится известно, что Гари ВИЧ-позитивен.

Сэмпл

Качество видео: DVDRip
Формат видео: AVI
Видео: 688x316 (2.18:1), 25 fps, DivX Codec 6.5.1 ~1999 kbps avg, 0.37 bit/pixel
Аудио: 48 kHz, AC3 Dolby Digital, 2/0 (L,R) ch, ~192 kbps

General
Complete name : E:\Downloads\Skorost_Gary.avi
Format : AVI
Format/Info : Audio Video Interleave
File size : 1.49 GiB
Duration : 1h 36mn
Overall bit rate : 2 202 Kbps
Writing application : VirtualDubMod 1.5.10.2 (build 2540/release)
Writing library : VirtualDubMod build 2540/release

Video
ID : 0
Format : MPEG-4 Visual
Format settings, BVOP : Yes
Format settings, QPel : No
Format settings, GMC : No warppoints
Format settings, Matrix : Default (H.263)
Codec ID : DX50
Codec ID/Hint : DivX 5
Duration : 1h 36mn
Bit rate : 2 000 Kbps
Width : 688 pixels
Height : 316 pixels
Display aspect ratio : 2.2:1
Frame rate : 25.000 fps
Color space : YUV
Chroma subsampling : 4:2:0
Bit depth : 8 bits
Scan type : Progressive
Compression mode : Lossy
Bits/(Pixel*Frame) : 0.368
Stream size : 1.35 GiB (91%)
Writing library : DivX 6.5.1 (UTC 2007-03)

Audio
ID : 1
Format : AC-3
Format/Info : Audio Coding 3
Mode extension : CM (complete main)
Format settings, Endianness : Big
Codec ID : 2000
Duration : 1h 36mn
Bit rate mode : Constant
Bit rate : 192 Kbps
Channel(s) : 2 channels
Channel positions : Front: L R
Sampling rate : 48.0 KHz
Bit depth : 16 bits
Compression mode : Lossy
Stream size : 133 MiB (9%)
Alignment : Split accross interleaves
Interleave, duration : 40 ms (1.00 video frame)
Interleave, preload duration : 500 ms


_________________



реклама партнёра


Вернуться к началу
 Профиль Отправить личное сообщение  
 
   Похожие торренты   Автор   Торрент   Размер 
В этой теме нет новых непрочитанных сообщений. Дракула / Dracula Untold (Гари Шор) [ужасы, фэнтези, боевик, драма, военный, 2014] BDRip, Dub [Лицензия]

Dracon

415 | 17

1.37 ГБ

В этой теме нет новых непрочитанных сообщений. Дракула / Dracula Untold (Гари Шор) [2014, ужасы, фэнтези, боевик, драма, военный, WEB-DL 720p | iTunes] Dub

Nickolas3435

9058 | 142

2.87 ГБ

В этой теме нет новых непрочитанных сообщений. Дракула / Dracula Untold (Гари Шор) [2014, ужасы, фэнтези, боевик, драма, военный, WEB-DLRip | iTunes] Dub

Nickolas3435

6280 | 180

1.46 ГБ

В этой теме нет новых непрочитанных сообщений. Дракула / Dracula Untold (Гари Шор) [ужасы, фэнтези, боевик, драма, военный, 2014] BDRemux 1080p, Dub+Sub [Лицензия]

Dracon

44 | 7

22.26 ГБ

В этой теме нет новых непрочитанных сообщений. Дракула / Dracula Untold (Гари Шор) [ужасы, фэнтези, боевик, драма, военный, 2014] BDRip 1080p, Dub+Sub [Лицензия]

Dracon

136 | 6

6.76 ГБ

В этой теме нет новых непрочитанных сообщений. Дракула / Dracula Untold (Гари Шор) [ужасы, фэнтези, боевик, драма, военный, 2014] BDRip 720p, Dub+Sub [iTunes]

Dracon

165 | 7

3.47 ГБ

В этой теме нет новых непрочитанных сообщений. Странная магия / Strange Magic (Гари Ридстром) [Мультфильм, Мюзикл, Фэнтези, Семейный, 2015] WEB-DLRip, Dub [iTunes]

Dracon

14 | 1

1.37 ГБ


Начать новую тему Ответить на тему  [ 1 сообщение ] 




Для Мосгорсуда, Роскомнадзора и рекламодателей:: mosgorsud-torrent[собачка]yandex.ru