Торрент файл
скачать торрент магнет ссылка Добавлен: 20 мар 2016, 17:11
Размер: 1.5 ГБ
Сидеров: 100
Личеров: 1
Статус: (salma3)
Автор

СообщениеДобавлено: 20 мар 2016, 17:11 

В сети
Супермодератор
Аватара пользователя
Дата регистрации:
15 фев 2012, 16:44
Возраст: 27
Спасибо: 5143 / 2090
Сообщения: 17475
Перевод: Любительский [двухголосый]
Формат: WEBDLRip, AVI, XviD, AC3
Страна: США
Режиссер: Том Льюис
Жанр: триллер, ужасы, драма
Продолжительность: 01:34:41
Год выпуска: 2016

В ролях: Кристен Стфенсонпино, Ник Кларк, Эндрю Олсон, Джаред Бохосиан, Кэрол Энн Уоттс, Коррин Эванс, Майрон Нэтвик, Ларрс Джексон, Донна Руш, Кимберли Спак

Описание: Молодая девушка, попадает в автомобильную аварию и переживает клиническую смерть, ее сердце остановилось на целых двадцать минут. Врачам удалось вернуть ее к жизни, но после этого случая, ее жизнь кардинально поменялась, с ней начали происходить ужасные вещи. Девушка утверждает, что побывав в загробном мире, она стала своеобразным каналом, через который злой дух попадает в наш мир.



Видео: 720x400 (16:9), 23.976 fps, XviD MPEG-4, ~ 1866 Kbps, 0.270 bit/pixel
Аудио #1: Russian: AC3, 48 kHz, 2.0 ch, 192 Kbps Любительский (двухголосый)
Aудио #2: English: AC3, 48 kHz, 2.0 ch, 192 Kbps [Оригинал]

General
Complete name : D:\torrent\The Channel (2016)_pics-ru.net.avi
Format : AVI
Format/Info : Audio Video Interleave
File size : 1.50 GiB
Duration : 1h 34mn
Overall bit rate : 2 265 Kbps
Writing application : VirtualDubMod 1.5.10.2 (build 2542/release)
Writing library : VirtualDubMod build 2542/release

Video
ID : 0
Format : MPEG-4 Visual
Format profile : Advanced Simple@L5
Format settings, BVOP : 2
Format settings, QPel : No
Format settings, GMC : No warppoints
Format settings, Matrix : Default (H.263)
Muxing mode : Packed bitstream
Codec ID : XVID
Codec ID/Hint : XviD
Duration : 1h 34mn
Bit rate : 1 866 Kbps
Width : 720 pixels
Height : 400 pixels
Display aspect ratio : 16:9
Frame rate : 23.976 fps
Color space : YUV
Chroma subsampling : 4:2:0
Bit depth : 8 bits
Scan type : Progressive
Compression mode : Lossy
Bits/(Pixel*Frame) : 0.270
Stream size : 1.23 GiB (82%)
Writing library : XviD 66

Audio #1
ID : 1
Format : AC-3
Format/Info : Audio Coding 3
Mode extension : CM (complete main)
Format settings, Endianness : Big
Codec ID : 2000
Duration : 1h 34mn
Bit rate mode : Constant
Bit rate : 192 Kbps
Channel(s) : 2 channels
Channel positions : Front: L R
Sampling rate : 48.0 KHz
Compression mode : Lossy
Stream size : 130 MiB (8%)
Alignment : Split accross interleaves
Interleave, duration : 42 ms (1.00 video frame)
Interleave, preload duration : 500 ms

Audio #2
ID : 2
Format : AC-3
Format/Info : Audio Coding 3
Mode extension : CM (complete main)
Format settings, Endianness : Big
Codec ID : 2000
Duration : 1h 34mn
Bit rate mode : Constant
Bit rate : 192 Kbps
Channel(s) : 2 channels
Channel positions : Front: L R
Sampling rate : 48.0 KHz
Compression mode : Lossy
Stream size : 130 MiB (8%)
Alignment : Split accross interleaves
Interleave, duration : 42 ms (1.00 video frame)
Interleave, preload duration : 500 ms


_________________



реклама партнёра


Вернуться к началу
 Профиль Отправить личное сообщение  
 
   Похожие торренты   Автор   Торрент   Размер 
В этой теме нет новых непрочитанных сообщений. Нулевой канал / Channel Zero [01х01-04 из 06] (ужасы, триллер, драма, детектив, 2016) HDTVRip 720р | Sunshine Studio

marya111

0 | 0

2.48 ГБ

В этой теме нет новых непрочитанных сообщений. Ведьмовство / The Witching [ужасы, триллер, 2016] WEBDLRip-AVC, Avo

salma3

357 | 18

1.49 ГБ

В этой теме нет новых непрочитанных сообщений. Сосед / The Neighbor [ужасы, триллер, криминал, 2016] WEBDLRip, Avo

salma3

89 | 1

1.36 ГБ

В этой теме нет новых непрочитанных сообщений. Неоновый демон / The Neon Demon [ужасы, триллер, 2016] WEBDLRip, Avo

salma3

97 | 2

1.45 ГБ

В этой теме нет новых непрочитанных сообщений. Кровавая ловушка / Blood Trap [ужасы, боевик, триллер, криминал, 2016] WEBDLRip, Avo

salma3

107 | 33

1.45 ГБ

В этой теме нет новых непрочитанных сообщений. Йоганутые / Yoga Hosers [триллер, чёрная комедия, ужасы, фэнтези, 2016] WEBDLRip, Dub [iTunes]

salma3

129 | 9

1.37 ГБ

В этой теме нет новых непрочитанных сообщений. Сверхъестественное / Supernatural (Сезон 11, Серия 1-18 из 23) ( Филип Сгриккиа, Роберт Сингер) 2015-2016 , Драма/Фэнтези/Ужасы/Детектив/Триллер , WEBDLRip 1080р] [MVO] [NewStudio & NovaFilm , LostFilm , BaibaKo , Jaskier, Englis] + [Sub

Враг Нароода

0 | 1

37.03 ГБ


Начать новую тему Ответить на тему  [ 1 сообщение ] 




Для Мосгорсуда, Роскомнадзора и рекламодателей:: mosgorsud-torrent[собачка]yandex.ru