Торрент файл
скачать торрент магнет ссылка Добавлен: 20 мар 2016, 14:29
Размер: 1.39 ГБ
Сидеров: 317
Личеров: 18
Статус: (salma3)
Автор

СообщениеДобавлено: 20 мар 2016, 14:29 

Не в сети
Супермодератор
Аватара пользователя
Дата регистрации:
15 фев 2012, 16:44
Возраст: 27
Спасибо: 5130 / 2089
Сообщения: 17372
Перевод: Профессиональный (двухголосый)
Формат: WEBDLRip, AVI, XviD, AC3
Страна: США
Режиссер: Гусела Моро
Жанр: Триллер, Криминал, Детектив
Продолжительность: 01:56:27
Год выпуска: 2016

В ролях: Стив Дарон, Гусела Моро, Берт Рейнолдс, Дэвид Осем, Тони Райхарт, Элин Дарне, Стив Альбертс, Демия Элифф, Шэрон Бло

Описание: Нью-Йоркский писатель Блейк Блэкман, в поисках вдохновения и душевного спокойствия со своей возлюбленной Анжеликой, убегает из шумного города, чтобы уединится в уютном горном домике. По прибытию, он узнает по местному телевидению, что в горах пропали несколько детей, плюс ко всему, его собака ведет себя очень странно. В итоге романтическая поездка, превращается в кошмар, после того, как исчезает Анжелика, а Блейк становится главным подозреваемым в её пропаже...



Видео: 720x400 (16:9), 23.976 fps, XviD MPEG-4, Simple@L5 ~ 1314 Kbps, 0.190 bit/pixel
Аудио: C3, 48 kHz, 2.0 ch, 384 Kbps

Доп. информация: Релиз без рекламы

General
Complete name : D:\torrent\Pustuinnaya.Buhta.avi
Format : AVI
Format/Info : Audio Video Interleave
File size : 1.39 GiB
Duration : 1h 56mn
Overall bit rate : 1 707 Kbps
Writing application : VirtualDubMod 1.5.10.2 (build 2542/release)
Writing library : VirtualDubMod build 2542/release

Video
ID : 0
Format : MPEG-4 Visual
Format profile : Advanced Simple@L5
Format settings, BVOP : 2
Format settings, QPel : No
Format settings, GMC : No warppoints
Format settings, Matrix : Default (H.263)
Muxing mode : Packed bitstream
Codec ID : XVID
Codec ID/Hint : XviD
Duration : 1h 56mn
Bit rate : 1 314 Kbps
Width : 720 pixels
Height : 400 pixels
Display aspect ratio : 16:9
Frame rate : 23.976 fps
Color space : YUV
Chroma subsampling : 4:2:0
Bit depth : 8 bits
Scan type : Progressive
Compression mode : Lossy
Bits/(Pixel*Frame) : 0.190
Stream size : 1.07 GiB (77%)
Writing library : XviD 66

Audio
ID : 1
Format : AC-3
Format/Info : Audio Coding 3
Mode extension : CM (complete main)
Format settings, Endianness : Big
Codec ID : 2000
Duration : 1h 56mn
Bit rate mode : Constant
Bit rate : 384 Kbps
Channel(s) : 2 channels
Channel positions : Front: L R
Sampling rate : 48.0 KHz
Compression mode : Lossy
Stream size : 320 MiB (22%)
Alignment : Split accross interleaves
Interleave, duration : 42 ms (1.00 video frame)
Interleave, preload duration : 500 ms



_________________



реклама партнёра


Вернуться к началу
 Профиль Отправить личное сообщение  
 
   Похожие торренты   Автор   Торрент   Размер 
В этой теме нет новых непрочитанных сообщений. Бухта спасения / Deliverance Creek (Джон Эмиел) [Драма, 2014] WEB-DLRip, Mvo

Dracon

1 | 0

1.37 ГБ

В этой теме нет новых непрочитанных сообщений. Бухта спасения / Deliverance Creek (Джон Эмиел) [Драма, 2014] WEB-DL 720p, Mvo

Dracon

22 | 18

2.88 ГБ

В этой теме нет новых непрочитанных сообщений. Сонная лощина / Sleepy Hollow (Сезон 3, Серия 1-7 из 18) ( Лен Уайзман) [2015, Фантастика,фэнтези, триллер, WEBDLRip-AVC][1080р] [MVO] [LostFilm]

Враг Нароода

0 | 0

13.95 ГБ

В этой теме нет новых непрочитанных сообщений. Батл Крик / Battle Creek (Сезон 1,Серия 1-9 из 13) (Винс Гиллиган, Дэвид Шор) [2015, Драма, криминал, WEBDLRip] [MVO] [LostFilm,NewStudio,BaibaKo,Gears Media]

Враг Нароода

0 | 0

15.99 ГБ

В этой теме нет новых непрочитанных сообщений. Сосед / The Neighbor [ужасы, триллер, криминал, 2016] WEBDLRip, Avo

salma3

89 | 1

1.36 ГБ

В этой теме нет новых непрочитанных сообщений. Сонная лощина / Sleepy Hollow (Сезон 1-2, Серия 1-15 из 31) ( Лен Уайзман) [2013-2014, Фантастика,фэнтези, триллер, WEBDLRip-AVC][1080р] [MVO] [LostFilm]

Враг Нароода

В этой теме нет новых непрочитанных сообщений. Проклятие Спящей красавицы / The Curse of Sleeping Beauty [фэнтези, триллер, детектив, 2016] WEBDLRip, Dub

salma3

184 | 7

1.35 ГБ


Начать новую тему Ответить на тему  [ 1 сообщение ] 




Для Мосгорсуда, Роскомнадзора и рекламодателей:: mosgorsud-torrent[собачка]yandex.ru