Торрент файл
скачать торрент магнет ссылка Добавлен: 19 мар 2016, 23:08
Размер: 1.09 ГБ
Сидеров: 3
Личеров: 2
Статус: (salma3)
Автор

СообщениеДобавлено: 19 мар 2016, 23:08 

Не в сети
Супермодератор
Аватара пользователя
Дата регистрации:
15 фев 2012, 16:44
Возраст: 28
Спасибо: 6577 / 2142
Сообщения: 43856
Страна: США, Филиппины
Жанр: Боевик , военный
Год выпуска: 1986
Продолжительность: 1:18:04

Перевод: Одноголосый закадровый (Sephiroth)
Cубтитры: нет
Режиссер: Сирио Сантьяго / Cirio H. Santiago

В ролях: Рик Хилл, Кэтт Ши, Терренс О’Хара, Билл МакЛафлин, Каз Гарас, Джек Дэниелс, Стив Роджерс, Дэбби Брукс, Дон Гордон Белл, Greg Rocero

Описание: Ветеран Вьетнама Диакон Портер узнает, что его командир был убит в Северной Калифорнии.Приехав туда, он выясняет, что город полностью контролируется местным авторитетом наркобароном. Едва не лишившись жизни, он собирает своих старых боевых сослуживцев, чтобы отомстить за смерть командира.

Доп. информация: За русскую озвучку спасибо Sephiroth и tong777 за дорожку

Сэмпл: https://www.sendspace.com/file/zvntts

Качество видео: WEB-DLRip
Формат видео: AVI
Видео: XviD MPEG-4 , 720x400 (1.80:1) , 23.976 fps , 1 801 Kbps
Аудио: АC3 , 48 kHz , 192.00 kbps avg , 2/0 (L,R) ch
Complete name Опустошитель 1986.avi
Format : AVI
Format/Info : Audio Video Interleave
File size : 1.09 GiB
Duration : 1h 18mn
Overall bit rate : 2 002 Kbps
Writing application : VirtualDubMod 1.5.10.3 | http://www.virtualdub-fr.org || (build 2550/release)
Writing library : VirtualDub build 35491/release

Video
ID : 0
Format : MPEG-4 Visual
Format profile : Advanced Simple@L5
Format settings, BVOP : 1
Format settings, QPel : No
Format settings, GMC : No warppoints
Format settings, Matrix : Custom
Codec ID : XVID
Codec ID/Hint : XviD
Duration : 1h 18mn
Bit rate : 1 801 Kbps
Width : 720 pixels
Height : 400 pixels
Display aspect ratio : 16:9
Frame rate : 23.976 (23976/1000) fps
Color space : YUV
Chroma subsampling : 4:2:0
Bit depth : 8 bits
Scan type : Progressive
Compression mode : Lossy
Bits/(Pixel*Frame) : 0.261
Stream size : 1 006 MiB (90%)
Writing library : XviD 73

Audio
ID : 1
Format : AC-3
Format/Info : Audio Coding 3
Mode extension : CM (complete main)
Format settings, Endianness : Big
Codec ID : 2000
Duration : 1h 18mn
Bit rate mode : Constant
Bit rate : 192 Kbps
Channel(s) : 2 channels
Channel positions : Front: L R
Sampling rate : 48.0 KHz
Frame rate : 31.250 fps (1536 spf)
Compression mode : Lossy
Stream size : 107 MiB (10%)
Alignment : Aligned on interleaves
Interleave, duration : 42 ms (1.00 video frame)
Interleave, preload duratio : 512 ms


_________________
Проголосуй за трекер Открытый торрент трекер - RUS-MEDIA.ORG

Проголосуй Открытый торрент трекер - RUS-MEDIA.ORG



реклама партнёра


Вернуться к началу
 Профиль Отправить личное сообщение  
 
   Похожие торренты   Автор   Торрент   Размер 
В этой теме нет новых непрочитанных сообщений. Герои не плачут / Ying xiong wu lei [боевик, драма, военный, 1986] DVDRip, Avo

salma3

74 | 62

1.37 ГБ

В этой теме нет новых непрочитанных сообщений. Перевал разбитых сердец / Heartbreak Ridge [боевик, драма, военный, 1986] BDRip 1080p, Mvo+Avo+Sub

salma3

3 | 7

19.23 ГБ

В этой теме нет новых непрочитанных сообщений. Перевал разбитых сердец / Heartbreak Ridge [боевик, драма, военный, 1986] BDRip 720p, Mvo+Avo+Sub

salma3

60 | 41

7.3 ГБ

В этой теме нет новых непрочитанных сообщений. Зубастики. Квадрология / Critters. Quadrilogy (Стивен Херек, Мик Гэррис, Кристин Питерсон, Руперт Харви.) [ужасы, фантастика, боевик, триллер, комедия, 1986-1992] WEB-DLRip-AVC, Mvo+Avo+Sub

Dracon

60 | 14

8.72 ГБ

В этой теме нет новых непрочитанных сообщений. Чужая война [01-04 из 04] (Александр Черняев) [Боевик, военный, 2014] WEB-DLRip

Dracon

2405 | 236

2.73 ГБ

В этой теме нет новых непрочитанных сообщений. Шесть / Six [S01] [Боевик, драма, военный, история, 2017] WEB-DLRip, Mvo [IdeaFilm]

salma3

19 | 10

4.18 ГБ

В этой теме нет новых непрочитанных сообщений. Ярость / Fury [боевик, драма, военный, 2014] WEB-DLRip, dub [iTunes]

Dracon

201 | 5

2.05 ГБ


Начать новую тему Ответить на тему  [ 1 сообщение ] 




Для Мосгорсуда, Роскомнадзора и рекламодателей:: mosgorsud-torrent[собачка]yandex.ru