Торрент файл
скачать торрент магнет ссылка Добавлен: 19 мар 2016, 13:27
Размер: 701.21 МБ
Сидеров: 790
Личеров: 18
Статус: (salma3)
Автор

СообщениеДобавлено: 19 мар 2016, 13:27 

В сети
Супермодератор
Аватара пользователя
Дата регистрации:
15 фев 2012, 16:44
Возраст: 27
Спасибо: 5121 / 2089
Сообщения: 17282
Лишняя плоть / Excess Flesh

Год выпуска: 2015
Жанр: триллер, драма
Режиссер: Патрик Кеннели

В ролях: Б. Лав Орр, Mary Loveless, Уэс МакГи, Кристин Минтер, Джилл Джейкобсон, Шерезада Побле Джеки, Дэна Л. Уилсон, Роберт Маффиа, Жуль Брафф, Хуан Ридингер

Описание:
Джилл одержима своей новой соседкой Дженнифер, успешной и сексуальной моделью. Глядя на нее, Джилл старается похудеть и готова на многое ради этого.



Страна: США
Продолжительность: 01:43:18
Перевод: Любительский (двухголосый)

Файл
Качество: WEBDLRip
Формат файла: AVI
Видео кодек: XviD
Аудио кодек: MP3
Видео: 640x352 (16:9), 23.976 fps, XviD MPEG-4, Simple@L5 ~ 812 Kbps, 0.150 bit/pixel
Аудио: MP3, 48 kHz, 2.0 ch, 128 Kbps


General
Complete name : D:\torrent\Excess.Flesh.2015.L2.WEB-DLRip.avi
Format : AVI
Format/Info : Audio Video Interleave
File size : 701 MiB
Duration : 1h 43mn
Overall bit rate : 949 Kbps
Writing application : VirtualDubMod 1.5.10.3 | www.virtualdub-fr.org || (build 2550/release)
Writing library : VirtualDubMod build 2550/release

Video
ID : 0
Format : MPEG-4 Visual
Format profile : Advanced Simple@L5
Format settings, BVOP : 1
Format settings, QPel : No
Format settings, GMC : No warppoints
Format settings, Matrix : Custom
Codec ID : XVID
Codec ID/Hint : XviD
Duration : 1h 43mn
Bit rate : 812 Kbps
Width : 640 pixels
Height : 352 pixels
Display aspect ratio : 16:9
Frame rate : 23.976 fps
Color space : YUV
Chroma subsampling : 4:2:0
Bit depth : 8 bits
Scan type : Progressive
Compression mode : Lossy
Bits/(Pixel*Frame) : 0.150
Stream size : 600 MiB (86%)
Writing library : XviD 73

Audio
ID : 1
Format : MPEG Audio
Format version : Version 1
Format profile : Layer 3
Mode : Joint stereo
Mode extension : MS Stereo
Codec ID : 55
Codec ID/Hint : MP3
Duration : 1h 43mn
Bit rate mode : Constant
Bit rate : 128 Kbps
Channel(s) : 2 channels
Sampling rate : 48.0 KHz
Compression mode : Lossy
Stream size : 94.6 MiB (13%)
Alignment : Aligned on interleaves
Interleave, duration : 42 ms (1.00 video frame)
Interleave, preload duration : 504 ms
Writing library : LAME3.99r
Encoding settings : -m j -V 4 -q 3 -lowpass 17 -b 128


_________________



реклама партнёра


Вернуться к началу
 Профиль Отправить личное сообщение  
 
   Похожие торренты   Автор   Торрент   Размер 
В этой теме нет новых непрочитанных сообщений. Лишняя плоть / Excess Flesh [триллер, драма, 2015] BDRip, dvo

marya111

0 | 0

1.46 ГБ

В этой теме нет новых непрочитанных сообщений. Лишняя плоть / Excess Flesh [триллер, драма, 2015] BDRemux 1080p, Dvo

salma3

24 | 14

17.32 ГБ

В этой теме нет новых непрочитанных сообщений. Плоть от плоти / Плоть и кости / Flesh and Bone [Триллер, 1993] DVDRip, Avo

salma3

15 | 4

2.05 ГБ

В этой теме нет новых непрочитанных сообщений. Плоть и кости / Flesh and Bone [S01] (Алик Сахаров, Адам Дэвидсон, Джошуа Марстон) [2015, драма, HDTVRip | NewStudio]

Dracon

60 | 40

5.44 ГБ

В этой теме нет новых непрочитанных сообщений. Плоть и кости / Flesh and Bone [S01] (Алик Сахаров, Адам Дэвидсон, Джошуа Марстон) [драма, 2015] HDTVRip [Amedia]

Dracon

980 | 675

5.48 ГБ

В этой теме нет новых непрочитанных сообщений. Плоть и кости / Flesh and Bone [S01] (Алик Сахаров, Адам Дэвидсон, Джошуа Марстон) [драма, 2015] HDTVRip 720p [Amedia]

Dracon

193 | 95

12.3 ГБ

В этой теме нет новых непрочитанных сообщений. Плоть и кости / Flesh and Bone [01x01-05 из 08] (Алик Сахаров, Адам Дэвидсон, Джошуа Марстон) [2015, драма, HDTVRip | NewStudio]

Dracon

45 | 45

3.42 ГБ


Начать новую тему Ответить на тему  [ 1 сообщение ] 




Для Мосгорсуда, Роскомнадзора и рекламодателей:: mosgorsud-torrent[собачка]yandex.ru