Торрент файл
скачать торрент магнет ссылка Добавлен: 19 мар 2016, 12:55
Размер: 1.46 ГБ
Сидеров: 30
Личеров: 2
Статус: (salma3)
Автор

СообщениеДобавлено: 19 мар 2016, 12:55 

Не в сети
Супермодератор
Аватара пользователя
Дата регистрации:
15 фев 2012, 16:44
Возраст: 27
Спасибо: 5139 / 2090
Сообщения: 17466
Сила одиночки / A Force of One

Год выхода: 1979
Жанр: боевик, триллер, драма, криминал
Режиссер: Пол Аарон / Paul Aaron

В ролях: Дженнифер О’Нил, Чак Норрис, Клу Гулагер, Рон О’Нил, Билл Уоллес, Эрик Ланёвилль, Джеймс Уитмор мл., Клинт Ричи,

О фильме:
В маленьком калифорнийском городке орудует банда тоговцев наркотиками. Помогать полицейским в уничтожении мафии начинает чемпион по каратэ Мэт Лонган. У него к бандитам особый счет: один из преступников убил приемного сына и ученика Логана. Теперь этот бандит — противник Мэта на ринге. А вне ринга — это опаснейший враг полицейских, использующий в борьбе запрещенные приемы.

Страна: США
Продолжительность: 01:30:58
Перевод: Авторский [одноголосый, закадровый] [Андрей, Гаврилов]

Файл
Качество: BDRip
Формат файла: AVI
Видео кодек: XviD
Аудио кодек: AC3
Видео: 704x400 (1.76:1), 23.976 fps, XviD build 73 ~2095 kbps avg, 0.28 bit/pixel
Аудио: 48 kHz, AC3 Dolby Digital, 2/0 (L,R) ch, ~192 kbps




General
Format : AVI
Format/Info : Audio Video Interleave
File size : 1.46 GiB
Duration : 1h 30mn
Overall bit rate : 2 296 Kbps
Writing application : VirtualDubMod 1.5.10.3 | www.virtualdub-fr.org || (build 2550/release)
Writing library : VirtualDubMod build 2550/release
Video
ID : 0
Format : MPEG-4 Visual
Format profile : Advanced Simple@L5
Format settings, BVOP : 1
Format settings, QPel : No
Format settings, GMC : No warppoints
Format settings, Matrix : Custom
Codec ID : XVID
Codec ID/Hint : XviD
Duration : 1h 30mn
Bit rate : 2 095 Kbps
Width : 704 pixels
Height : 400 pixels
Display aspect ratio : 16:9
Frame rate : 23.976 fps
Color space : YUV
Chroma subsampling : 4:2:0
Bit depth : 8 bits
Scan type : Progressive
Compression mode : Lossy
Bits/(Pixel*Frame) : 0.310
Stream size : 1.33 GiB (91%)
Writing library : XviD 73
Audio
ID : 1
Format : AC-3
Format/Info : Audio Coding 3
Mode extension : CM (complete main)
Format settings, Endianness : Big
Codec ID : 2000
Duration : 1h 30mn
Bit rate mode : Constant
Bit rate : 192 Kbps
Channel(s) : 2 channels
Channel positions : Front: L R
Sampling rate : 48.0 KHz
Bit depth : 16 bits
Compression mode : Lossy
Stream size : 125 MiB (8%)
Alignment : Split accross interleaves
Interleave, duration : 42 ms (1.00 video frame)
Interleave, preload duration : 500 ms

Релиз от: Автор рипа: Sem-te


_________________



реклама партнёра


Вернуться к началу
 Профиль Отправить личное сообщение  
 
   Похожие торренты   Автор   Торрент   Размер 
В этой теме нет новых непрочитанных сообщений. Сила одиночки / A Force Of One [Боевик, триллер, 1979] BDRip 1080p, Mvo+Avo

salma3

27 | 50

9.79 ГБ

В этой теме нет новых непрочитанных сообщений. Карающая сила / Avenging Force [Боевик, Триллер, Драма, 1986] HDRip, Mvo+Avo

salma3

74 | 7

1.46 ГБ

В этой теме нет новых непрочитанных сообщений. Карающая сила / Avenging Force [боевик, триллер, драма, 1986] DVDRip-AVC, Avo+Mvo

salma3

16 | 2

1.55 ГБ

В этой теме нет новых непрочитанных сообщений. Сила пятерых / Force: Five [боевик, 1981] DVDRip, Avo

salma3

21 | 2

1.46 ГБ

В этой теме нет новых непрочитанных сообщений. Неукротимая сила / Raw Force [боевик, приключения, 1982] HDRip, Avo

salma3

92 | 3

744.85 МБ

В этой теме нет новых непрочитанных сообщений. Избыточная сила 1 / Чрезмерное насилие / Excessive Force [боевик, 1993] DVDRip-AVC, Mvo [НТВ+]

salma3

9 | 6

1.57 ГБ

В этой теме нет новых непрочитанных сообщений. Отряд «Дельта» / The Delta Force [Боевик, триллер, драма, 1986] BDRip 1080p, Mvo+Avo

salma3

58 | 67

13.47 ГБ


Начать новую тему Ответить на тему  [ 1 сообщение ] 




Для Мосгорсуда, Роскомнадзора и рекламодателей:: mosgorsud-torrent[собачка]yandex.ru