Торрент файл
скачать торрент магнет ссылка Добавлен: 18 мар 2016, 14:05
Размер: 1.46 ГБ
Сидеров: 187
Личеров: 8
Статус: (salma3)
Автор

СообщениеДобавлено: 18 мар 2016, 14:05 

В сети
Супермодератор
Аватара пользователя
Дата регистрации:
15 фев 2012, 16:44
Возраст: 28
Спасибо: 6577 / 2143
Сообщения: 43879
Перевод: Любительский (двухголосый), субтитры: отсутствуют
Формат: HDRip, AVI, XviD, AC3
Страна: США, Канада
Режиссер: Джон Наутц
Жанр: ужасы, триллер, драма, детектив
Продолжительность: 01:30:57
Год выпуска: 2015

В ролях: Алексис Найт, Кристофер Найсмит, Элизабет Сэнди, Монда Скотт, Hugh Westbourne, Richard Velton, Anna Logan, Рэй Грэйди, Renda Mishalany, Dale Brandenburg

Описание: Психически неуравновешенная женщина начинает свои любовные похождения, когда узнает о том, что её возлюбленный изменил ей..



Видео: 720x304 (2.35:1), 23.976 fps, XviD MPEG-4, Simple@L5 ~ 1897 Kbps, 0.361 bit/pixel
Аудио #1: Russian: AC3, 48 kHz, 2.0 ch, 192 Kbps Любительский (двухголосый)
Aудио #2: English: AC3, 48 kHz, 2.0 ch, 192 Kbps [Оригинал]

General
Complete name : D:\torrent\Goddess.of.Love.2015.L2.HDRip.avi
Format : AVI
Format/Info : Audio Video Interleave
File size : 1.46 GiB
Duration : 1h 30mn
Overall bit rate : 2 295 Kbps
Writing application : VirtualDubMod 1.5.10.3 | www.virtualdub-fr.org || (build 2550/release)
Writing library : VirtualDubMod build 2550/release

Video
ID : 0
Format : MPEG-4 Visual
Format profile : Advanced Simple@L5
Format settings, BVOP : 1
Format settings, QPel : No
Format settings, GMC : No warppoints
Format settings, Matrix : Custom
Codec ID : XVID
Codec ID/Hint : XviD
Duration : 1h 30mn
Bit rate : 1 897 Kbps
Width : 720 pixels
Height : 304 pixels
Display aspect ratio : 2.35:1
Frame rate : 23.976 fps
Color space : YUV
Chroma subsampling : 4:2:0
Bit depth : 8 bits
Scan type : Progressive
Compression mode : Lossy
Bits/(Pixel*Frame) : 0.361
Stream size : 1.21 GiB (83%)
Writing library : XviD 73

Audio #1
ID : 1
Format : AC-3
Format/Info : Audio Coding 3
Mode extension : CM (complete main)
Format settings, Endianness : Big
Codec ID : 2000
Duration : 1h 30mn
Bit rate mode : Constant
Bit rate : 192 Kbps
Channel(s) : 2 channels
Channel positions : Front: L R
Sampling rate : 48.0 KHz
Compression mode : Lossy
Stream size : 125 MiB (8%)
Alignment : Split accross interleaves
Interleave, duration : 42 ms (1.00 video frame)
Interleave, preload duration : 500 ms

Audio #2
ID : 2
Format : AC-3
Format/Info : Audio Coding 3
Mode extension : CM (complete main)
Format settings, Endianness : Big
Codec ID : 2000
Duration : 1h 30mn
Bit rate mode : Constant
Bit rate : 192 Kbps
Channel(s) : 2 channels
Channel positions : Front: L R
Sampling rate : 48.0 KHz
Compression mode : Lossy
Stream size : 125 MiB (8%)
Alignment : Split accross interleaves
Interleave, duration : 42 ms (1.00 video frame)
Interleave, preload duration : 500 ms


_________________
Проголосуй за трекер Открытый торрент трекер - RUS-MEDIA.ORG

Проголосуй Открытый торрент трекер - RUS-MEDIA.ORG



реклама партнёра


Вернуться к началу
 Профиль Отправить личное сообщение  
 
   Похожие торренты   Автор   Торрент   Размер 
В этой теме нет новых непрочитанных сообщений. Богиня любви / Goddess of Love [ужасы, триллер, драма, детектив, 2015] BDRip 720p, Dvo

salma3

663 | 90

3.62 ГБ

В этой теме нет новых непрочитанных сообщений. Богиня любви / Goddess of Love [Триллер, драма, детектив, 2015] BDRip 1080р, Mvo

salma3

55 | 53

8.91 ГБ

В этой теме нет новых непрочитанных сообщений. Богиня Любви / Goddess of Love [фэнтези, комедия, 1988] DVDRip, Dvo

salma3

24 | 9

745.28 МБ

В этой теме нет новых непрочитанных сообщений. Гончие любви / Hounds of Love [ужасы, триллер, драма, криминал, 2016] HDRip, Mvo

salma3

73 | 23

1.46 ГБ

В этой теме нет новых непрочитанных сообщений. Latina Squirt Goddess / Латинская Богиня Сквирта (2016) WEB-DL

amadei

9 | 5

1.78 ГБ

В этой теме нет новых непрочитанных сообщений. Инициация любви / Initiation Love [мелодрама, комедия, 2015] HDRip, Avo

salma3

17 | 2

1.45 ГБ

В этой теме нет новых непрочитанных сообщений. Ведьма любви / The Love Witch [ужасы, комедия, 2016] HDRip, Dvo

salma3

157 | 41

1.37 ГБ


Начать новую тему Ответить на тему  [ 1 сообщение ] 




Для Мосгорсуда, Роскомнадзора и рекламодателей:: mosgorsud-torrent[собачка]yandex.ru