Торрент файл
скачать торрент магнет ссылка Добавлен: 17 мар 2016, 21:41
Размер: 700.89 МБ
Сидеров: 0
Личеров: 0
Статус: (salma3)
Автор

СообщениеДобавлено: 17 мар 2016, 21:41 

В сети
Супермодератор
Аватара пользователя
Дата регистрации:
15 фев 2012, 16:44
Возраст: 27
Спасибо: 5121 / 2089
Сообщения: 17272
Производство: США
Жанр: Боевик, триллер, драма, криминал

Режиссер: Джэми Маршалл, Jamie Marshall
Актеры: Таня Рэймонд, ЭйДжей Мичалка, Кит Дэвид, Скаут Тейлор-Комптон, Франсиа Рэйса, Брайан Коллен, Марк Л. Янг, Бо Напп, Трой Эванс, Акилла Золл

Описание:
Младшему помощнику босса было доверено ожерелье ценой в 1 миллион долларов, однако кто-то из товарищей обворовал его...



Продолжительность: 01:19:38
Качество видео: DVDRip
Перевод: Профессиональный двухголосый
Субтитры: Отсутствуют
Реклама: Присутствуют вставки голосовой и текстовой рекламы!

Видео: MPEG4, XviD, 640x344 (1.860), 25.000 fps, 1 093 Kbps (0.199 bit/pixel)
Аудио: AC-3, 48.0 KHz, 2 ch, 128 Kbps, CBR
Код:
Код:
Общее
Полное имя                               : C:\NNM\Грязная ложь\Dirty Lies 2016 DVDRip.avi
Формат                                   : AVI
Формат/Информация                        : Audio Video Interleave
Размер файла                             : 701 Мбайт
Продолжительность                        : 1 ч. 19 м.
Общий поток                              : 1230 Кбит/сек
Программа кодирования                    : VirtualDubMod 1.5.10.2 (build 2540/release)
Библиотека кодирования                   : VirtualDubMod build 2540/release

Видео
Идентификатор                            : 0
Формат                                   : MPEG-4 Visual
Профиль формата                          : Advanced Simple@L5
Параметр BVOP формата                    : 2
Параметр QPel формата                    : Нет
Параметр GMC формата                     : Без точки перехода
Параметр матрицы формата                 : Default (MPEG)
Идентификатор кодека                     : XVID
Идентификатор кодека/Подсказка           : XviD
Продолжительность                        : 1 ч. 19 м.
Битрейт                                  : 1093 Кбит/сек
Ширина                                   : 640 пикселей
Высота                                   : 344 пикселя
Соотношение сторон                       : 1,85:1
Частота кадров                           : 25,000 кадров/сек
Цветовое пространство                    : YUV
Субдискретизация насыщенности            : 4:2:0
Битовая глубина                          : 8 бит
Тип развёртки                            : Прогрессивная
Метод сжатия                             : С потерями
Бит/(Пиксели*Кадры)                      : 0.199
Размер потока                            : 622 Мбайт (89%)
Библиотека кодирования                   : XviD 1.2.1 (UTC 2008-12-04)

Аудио
Идентификатор                            : 1
Формат                                   : AC-3
Формат/Информация                        : Audio Coding 3
Расширение режима                        : CM (complete main)
Параметр Endianness формата              : Big
Идентификатор кодека                     : 2000
Продолжительность                        : 1 ч. 19 м.
Вид битрейта                             : Постоянный
Битрейт                                  : 128 Кбит/сек
Каналы                                   : 2 канала
Расположение каналов                     : Front: L R
Частота                                  : 48,0 КГц
Частота кадров                           : 31,250 кадров/сек (1536 spf)
Метод сжатия                             : С потерями
Размер потока                            : 72,9 Мбайт (10%)
Выравнивание                             : Разделение по промежуткам
Продолжительность промежутка             : 40  мс. (1,00 видеокадр)
Время предзагрузки промежутка            : 500  мс.


_________________



реклама партнёра


Вернуться к началу
 Профиль Отправить личное сообщение  
 
   Похожие торренты   Автор   Торрент   Размер 
В этой теме нет новых непрочитанных сообщений. Грязная ложь / Dirty Lies (Джэми Маршалл / Jamie Marshall) [2016г., боевик, триллер, драма, криминал, WEB-DLRip] DVO

Alfredovich

23 | 7

1.37 ГБ

В этой теме нет новых непрочитанных сообщений. Правдивая ложь / True Lies [Боевик, Триллер, Комедия, 1994] WEBRip 1080p, Dub+Mvo+Sub

salma3

119 | 31

13.7 ГБ

В этой теме нет новых непрочитанных сообщений. Разная ложь / Separate Lies [триллер, драма, мелодрама, 2005] HDTVRip, Mvo

salma3

37 | 6

1.28 ГБ

В этой теме нет новых непрочитанных сообщений. Тайны и ложь / Secrets & Lies / 1 сезон 1-10 серии из 10 [триллер, драма, детектив, 2015] WEB-DLRip, Dub [Кириллица]

salma3

230 | 39

7.23 ГБ

В этой теме нет новых непрочитанных сообщений. Тайны и ложь / Secrets & Lies [s1] (Кейт Дэннис, Питер Сэлмон) [2014, триллер, драма, HDTVRip | VictoryFilms]

Nickolas3435

22 | 2

3.9 ГБ

В этой теме нет новых непрочитанных сообщений. Тайны и ложь / Secrets & Lies [1 сезон: 1-6 серии из 6] (Кейт Дэннис, Питер Сэлмон) [Триллер, драма, 2014] WEB-DLRip, Mvo

Dracon

9 | 1

3.52 ГБ

В этой теме нет новых непрочитанных сообщений. Грязная любовь / Dirty Love [комедия, мелодрама, 2005] DVDRip, Mvo

salma3

105 | 8

1.46 ГБ


Начать новую тему Ответить на тему  [ 1 сообщение ] 




Для Мосгорсуда, Роскомнадзора и рекламодателей:: mosgorsud-torrent[собачка]yandex.ru