Торрент файл
скачать торрент магнет ссылка Добавлен: 17 мар 2016, 17:15
Размер: 1.45 ГБ
Сидеров: 4
Личеров: 3
Статус: (salma3)
Автор

СообщениеДобавлено: 17 мар 2016, 17:15 

Не в сети
Супермодератор
Аватара пользователя
Дата регистрации:
15 фев 2012, 16:44
Возраст: 28
Спасибо: 6563 / 2130
Сообщения: 43647
Выкуп / The Terrorists

Год выпуска: 1974
Жанр: триллер, драма, криминал
Режиссер: Каспар Вреде

В ролях: Шон Коннери, Иэн МакШейн, Джефри Уикэм, Изабель Дин, Джон Квентин, Роберт Харрис, Джеймс Максвелл, Уильям Фокс, Гарри Лэндис, Норман Бристоу, Джон Кординг,

Описание:
Мартин Шеперд со своими сообщниками проникает в резиденцию посольства Великобритании и берет в заложники персонал. Бандиты требуют освободить из английских тюрем своих товарищей. В это время в аэропорту отряд террористов под командованием Рэя Петри захватывает в воздухе авиалайнер с пассажирами, чтобы вылететь из страны, взяв на борт бывших заключенных. Однако при посадке самолет терпит аварию. Преступники вынуждены ждать окончания ремонта. Теперь время работает против них. Тем более, что за переговоры с ними берется полковник Нильс Тальвик.



Страна: Великобритания
Продолжительность: 01:28:45
Перевод: Профессиональный (многоголосый, закадровый)

Файл
Качество: BDRip
Формат файла: AVI
Видео кодек: XviD
Аудио кодек: AC3
Видео: 720x432 (1.67:1), 23.976 fps, XviD build 72 ~1749 kbps avg, 0.235 bit/pixel
Аудио1: 48 kHz, AC3 Dolby Digital, 2/0 (L,R), ~192.00 kbps avg [многоголосый]
Аудио2: 48 kHz, AC3 Dolby Digital, 3/2 (L,C,R,l,r) + LFE ch, ~384.00 kbps avg[Английский]


Формат : AVI
Формат/Информация : Audio Video Interleave
Размер файла : 1,45 Гбайт
Продолжительность : 1 ч. 28 м.
Общий поток : 2339 Кбит/сек
Название фильма : Выкуп / The Terrorists / Ransom (1974) BDRip
Режиссёр : yaroslaigor
Жанр : триллер, драма, криминал
Программа кодирования : VirtualDubMod 1.5.10.2 (build 2540/release)
Правообладатель : http://hqclub.net/
Примечание : 28.05.2012

Видео
Идентификатор : 0
Формат : MPEG-4 Visual
Профиль формата : Advanced Simple@L5
Параметр BVOP формата : 1
Параметр QPel формата : Нет
Параметр GMC формата : Без точки перехода
Параметр матрицы формата : Выборочная
Идентификатор кодека : XVID
Идентификатор кодека/Подсказка : XviD
Продолжительность : 1 ч. 28 м.
Битрейт : 1749 Кбит/сек
Ширина : 720 пикселей
Высота : 432 пикселя
Соотношение сторон : 1,667
Частота кадров : 23,976 кадра/сек
Цветовое пространство : YUV
Субдискретизация насыщенности : 4:2:0
Битовая глубина : 8 бит
Тип развёртки : Прогрессивная
Метод сжатия : С потерями
Бит/(Пиксели*Кадры) : 0.235
Размер потока : 1,08 Гбайт (75%)
Библиотека кодирования : XviD 72

Аудио #1
Идентификатор : 1
Формат : AC-3
Формат/Информация : Audio Coding 3
Расширение режима : CM (complete main)
Параметр Endianness формата : Big
Идентификатор кодека : 2000
Продолжительность : 1 ч. 28 м.
Вид битрейта : Постоянный
Битрейт : 192 Кбит/сек
Каналы : 2 канала
Расположение каналов : Front: L R
Частота : 48,0 КГц
Битовая глубина : 16 бит
Метод сжатия : С потерями
Размер потока : 122 Мбайт (8%)
Выравнивание : Разделение по промежуткам
Продолжительность промежутка : 42 мс. (1,00 видеокадр)
Время предзагрузки промежутка : 500 мс.

Аудио #2
Идентификатор : 2
Формат : AC-3
Формат/Информация : Audio Coding 3
Расширение режима : CM (complete main)
Параметр Endianness формата : Big
Идентификатор кодека : 2000
Продолжительность : 1 ч. 28 м.
Вид битрейта : Постоянный
Битрейт : 384 Кбит/сек
Каналы : 6 каналов
Расположение каналов : Front: L C R, Side: L R, LFE
Частота : 48,0 КГц
Битовая глубина : 16 бит
Метод сжатия : С потерями
Размер потока : 244 Мбайт (16%)
Выравнивание : Разделение по промежуткам
Продолжительность промежутка : 42 мс. (1,00 видеокадр)
Время предзагрузки промежутка : 500 мс.




_________________
Проголосуй за трекер Открытый торрент трекер - RUS-MEDIA.ORG

Проголосуй Открытый торрент трекер - RUS-MEDIA.ORG



реклама партнёра


Вернуться к началу
 Профиль Отправить личное сообщение  
 
   Похожие торренты   Автор   Торрент   Размер 
В этой теме нет новых непрочитанных сообщений. Выкуп / Butterfly on a Wheel [триллер, драма, криминал, 2006] BDRip 720p, Dub

salma3

62 | 16

4.36 ГБ

В этой теме нет новых непрочитанных сообщений. Выкуп / Ransom [триллер, криминал, 1996] BDRip 720p, Dub+2Mvo+Sub

salma3

95 | 10

4.37 ГБ

В этой теме нет новых непрочитанных сообщений. Выкуп / Ransom [S01] [Драма, криминал, триллер, 2017] WEB-DLRip, Mvo [IdeaFilm]

salma3

0 | 0

7.24 ГБ

В этой теме нет новых непрочитанных сообщений. Выкуп / Ransom [01x01-04 из 13] (Драма, криминал, триллер, 2017) WEB-DLRip | IdeaFilm

marya111

79 | 16

2.26 ГБ

В этой теме нет новых непрочитанных сообщений. Выкуп / Ransom [S01] [Драма, криминал, триллер, 2017] HDTVRip, WEB-DLRip 720p, Mvo [IdeaFilm]

salma3

0 | 0

17.73 ГБ

В этой теме нет новых непрочитанных сообщений. Якудза / The Yakuza [боевик, триллер, драма, криминал, 1974] BDRip 720p, Dvo+Sub [НТВ]

salma3

75 | 56

6.71 ГБ

В этой теме нет новых непрочитанных сообщений. Крестный отец 1,2,3 / The Godfather: Part I, II, III [Боевик, триллер, драма, криминал, 1972, 1974, 1990] BDRip, Dub+Sub [Нева Фильм]

salma3

23 | 7

6.56 ГБ


Начать новую тему Ответить на тему  [ 1 сообщение ] 




Для Мосгорсуда, Роскомнадзора и рекламодателей:: mosgorsud-torrent[собачка]yandex.ru