Торрент файл
скачать торрент магнет ссылка Добавлен: 17 мар 2016, 13:42
Размер: 1.45 ГБ
Сидеров: 2
Личеров: 1
Статус: (salma3)
Автор

СообщениеДобавлено: 17 мар 2016, 13:42 

В сети
Супермодератор
Аватара пользователя
Дата регистрации:
15 фев 2012, 16:44
Возраст: 28
Спасибо: 6594 / 2145
Сообщения: 44275
Страна: США
Жанр: Комедия . приключения
Год выпуска: 1992
Продолжительность: 1:28:38

Перевод: Авторский (одноголосый закадровый) М. Иванов
Cубтитры: нет
Режиссер: Майк Марвин / Mike Marvin

В ролях: Пол Ле Мэт, Джеффри Льюис, Пол Глисон, Куин Кесслер, Нэнси Парсонс, Брайон Джеймс, Гейлард Сартейн, Лиз Шеридан, Майкл Д. Робертс, Рэнс Ховард

Описание: Бейзи — сообразительный парень — он собирает хлам, который выбрасывают богатые. Однажды Бейзи встречает человека в шароварах и чалме.
Это джинн, который ищет свою бутылку. Ради нее он готов исполнить любые три желания Бейзи…

Доп. информация: За звуковую дорожку спасибо Evil ED 86

Сэмпл: https://www.sendspace.com/file/o4h8qo

Качество видео: VHSRip
Формат видео: AVI
Видео: XviD MPEG-4 , 640x480 (1.33:1) , 29.970 fps , 2 143 Kbps
Аудио: АC3 , 48 kHz , 192.00 kbps avg , 2/0 (L,R) ch
Complete name : H:\Джинн без бутылки 1992.avi
Format : AVI
Format/Info : Audio Video Interleave
File size : 1.45 GiB
Duration : 1h 28mn
Overall bit rate : 2 347 Kbps
Writing application : VirtualDubMod 1.5.10.3 | http://www.virtualdub-fr.org || (build 2550/release)
Writing library : VirtualDub build 35491/release

Video
ID : 0
Format : MPEG-4 Visual
Format profile : Advanced Simple@L5
Format settings, BVOP : 1
Format settings, QPel : No
Format settings, GMC : No warppoints
Format settings, Matrix : Custom
Codec ID : XVID
Codec ID/Hint : XviD
Duration : 1h 28mn
Bit rate : 2 143 Kbps
Width : 640 pixels
Height : 480 pixels
Display aspect ratio : 4:3
Frame rate : 29.970 (29970/1000) fps
Color space : YUV
Chroma subsampling : 4:2:0
Bit depth : 8 bits
Scan type : Progressive
Compression mode : Lossy
Bits/(Pixel*Frame) : 0.233
Stream size : 1.33 GiB (91%)
Writing library : XviD 73

Audio
ID : 1
Format : AC-3
Format/Info : Audio Coding 3
Mode extension : CM (complete main)
Format settings, Endianness : Big
Codec ID : 2000
Duration : 1h 28mn
Bit rate mode : Constant
Bit rate : 192 Kbps
Channel(s) : 2 channels
Channel positions : Front: L R
Sampling rate : 48.0 KHz
Frame rate : 31.250 fps (1536 spf)
Compression mode : Lossy
Stream size : 122 MiB (8%)
Alignment : Aligned on interleaves
Interleave, duration : 33 ms (1.00 video frame)
Interleave, preload duratio : 512 ms


_________________
Проголосуй за трекер Открытый торрент трекер - RUS-MEDIA.ORG

Проголосуй Открытый торрент трекер - RUS-MEDIA.ORG



реклама партнёра


Вернуться к началу
 Профиль Отправить личное сообщение  
 
   Похожие торренты   Автор   Торрент   Размер 
В этой теме нет новых непрочитанных сообщений. Девлин / Devlin [боевик, драма, 1992] VHSRip, Avo

salma3

11 | 4

746.01 МБ

В этой теме нет новых непрочитанных сообщений. Интимная одержимость / Intimate Obsession [Мелодрама, криминал, 1992] VHSRip, Avo

salma3

2 | 1

1.45 ГБ

В этой теме нет новых непрочитанных сообщений. Честь и слава / Zong heng tian xia [боевик, 1992] VHSRip, Avo

salma3

5 | 6

699.44 МБ

В этой теме нет новых непрочитанных сообщений. Red Hot -N- Pink volume 13 / Страстные горячие и Розовые часть 13 (Cinderella Entertainment) [1992 г., Classic, VHSRip]

salma3

1 | 0

1.5 ГБ

В этой теме нет новых непрочитанных сообщений. Джош и Сэм / Josh and S.A.M. [семейный, комедия, приключения, 1993] VHSRip, Avo

salma3

2 | 0

1.59 ГБ

В этой теме нет новых непрочитанных сообщений. Капитан Рон / Captain Ron [комедия, приключения, семейный, 1992] WEB-DL 720p, Mvo+Dvo+Avo+Sub

salma3

24 | 8

3.89 ГБ

В этой теме нет новых непрочитанных сообщений. Джинн [01-04 из 04] (Мелодрама, 2016) WEB-DL 1080p от Files-x

marya111

0 | 0

3.74 ГБ


Начать новую тему Ответить на тему  [ 1 сообщение ] 




Для Мосгорсуда, Роскомнадзора и рекламодателей:: mosgorsud-torrent[собачка]yandex.ru