Торрент файл
скачать торрент магнет ссылка Добавлен: 17 мар 2016, 13:28
Размер: 2.18 ГБ
Сидеров: 49
Личеров: 5
Статус: (salma3)
Автор

СообщениеДобавлено: 17 мар 2016, 13:28 

Не в сети
Супермодератор
Аватара пользователя
Дата регистрации:
15 фев 2012, 16:44
Возраст: 28
Спасибо: 6565 / 2130
Сообщения: 43671
Темный рыцарь / The Dark Knight

Год выхода: 2008
Жанр: Боевик, Фантастика, Триллер, Криминал
Режиссер: Кристофер Нолан

Актеры: Кристиан Бэйл, Хит Леджер, Аарон Экхарт, Мэгги Джилленхол, Гари Олдман, Майкл Кейн, Морган Фриман, Чин Хань, Нестор Карбонелл, Эрик Робертс

Описание:
Бэтмен поднимает ставки в войне с криминалом. С помощью лейтенанта Джима Гордона и прокурора Харви Дента он намерен очистить улицы от преступности, отравляющей город. Сотрудничество оказывается эффективным, но скоро они обнаружат себя посреди хаоса, развязанного восходящим криминальным гением, известным испуганным горожанам под именем Джокер.



Производство: США / Warner Bros., Legendary Pictures, Syncopy
Продолжительность: 02:32:13
Перевод: Авторский (одноголосый, закадровый) [А.Гаврилов]

Файл
Качество: HDRip
Формат файла: AVI
Видео кодек: XviD
Аудио кодек: AC3
Видео: 720x400 (1.80:1), 23.976 fps, XviD build 73 ~1598 kbps, 0.23 bit/pixel
Аудио: 48 kHz, AC3 Dolby Digital, 3/2 (L,C,R,l,r) + LFE ch, ~448 kbps


Формат : AVI
Формат/Информация : Audio Video Interleave
Профиль формата : OpenDML
Размер файла : 2,18 Гбайт
Продолжительность : 2 ч. 32 м.
Общий поток : 2053 Кбит/сек
Программа кодирования : VirtualDubMod 1.5.10.3 | www.virtualdub-fr.org || (build 2550/release)
Библиотека кодирования : VirtualDubMod build 2550/release
Видео
Идентификатор : 0
Формат : MPEG-4 Visual
Профиль формата : Advanced Simple@L5
Параметр BVOP формата : 1
Параметр QPel формата : Нет
Параметр GMC формата : Без точки перехода
Параметр матрицы формата : Выборочная
Идентификатор кодека : XVID
Идентификатор кодека/Подсказка : XviD
Продолжительность : 2 ч. 32 м.
Битрейт : 1594 Кбит/сек
Ширина : 720 пикселей
Высота : 400 пикселей
Соотношение сторон : 16:9
Частота кадров : 23,976 кадра/сек
Цветовое пространство : YUV
Субдискретизация насыщенности : 4:2:0
Битовая глубина : 8 бит
Тип развёртки : Прогрессивная
Метод сжатия : С потерями
Бит/(Пиксели*Кадры) : 0.231
Размер потока : 1,69 Гбайт (78%)
Библиотека кодирования : XviD 73
Аудио
Идентификатор : 1
Формат : AC-3
Формат/Информация : Audio Coding 3
Расширение режима : CM (complete main)
Параметр Endianness формата : Big
Идентификатор кодека : 2000
Продолжительность : 2 ч. 32 м.
Вид битрейта : Постоянный
Битрейт : 448 Кбит/сек
Каналы : 6 каналов
Расположение каналов : Front: L C R, Side: L R, LFE
Частота : 48,0 КГц
Битовая глубина : 16 бит
Метод сжатия : С потерями
Размер потока : 488 Мбайт (22%)
Выравнивание : Разделение по промежуткам
Продолжительность промежутка : 42 мс. (1,00 видеокадр)
Время предзагрузки промежутка : 500 мс.

Релиз от: K.E.N


_________________
Проголосуй за трекер Открытый торрент трекер - RUS-MEDIA.ORG

Проголосуй Открытый торрент трекер - RUS-MEDIA.ORG



реклама партнёра


Вернуться к началу
 Профиль Отправить личное сообщение  
 
   Похожие торренты   Автор   Торрент   Размер 
В этой теме нет новых непрочитанных сообщений. Темный рыцарь: Возрождение легенды / The Dark Knight Rises [фантастика, боевик, триллер, 2012] Blu-ray EUR 1080p, Dub [IMAX] [Лицензия]

salma3

10 | 9

40.16 ГБ

В этой теме нет новых непрочитанных сообщений. Трансформеры: Последний рыцарь / Transformers: The Last Knight [фантастика, боевик, триллер, 2017] HDRip-AVC, Dub+Sub [iTunes]

salma3

2085 | 1115

1.45 ГБ

В этой теме нет новых непрочитанных сообщений. Первый рыцарь / First Knight [боевик, триллер, мелодрама, 1995] HDRip, Dub [Лицензия]

salma3

37 | 13

1.45 ГБ

В этой теме нет новых непрочитанных сообщений. Трансформеры: Последний рыцарь / Transformers: The Last Knight [фантастика, боевик, триллер, 2017] BDRip-AVC, Dub [iTunes]

salma3

661 | 365

4.77 ГБ

В этой теме нет новых непрочитанных сообщений. Трансформеры: Последний рыцарь / Transformers: The Last Knight [фантастика, боевик, триллер, 2017] BDRip, Dub+Sub [iTunes]

salma3

736 | 169

1.46 ГБ

В этой теме нет новых непрочитанных сообщений. Трансформеры: Последний рыцарь / Transformers: The Last Knight [фантастика, боевик, триллер, 2017] WEB-DL 1080p, Dub+Sub [iTunes]

salma3

12072 | 7210

10.51 ГБ

В этой теме нет новых непрочитанных сообщений. Трансформеры: Последний рыцарь / Transformers: The Last Knight [фантастика, боевик, триллер, 2017] Blu-ray 1080p, Dub [iTunes]

salma3

81 | 63

42.26 ГБ


Начать новую тему Ответить на тему  [ 1 сообщение ] 




Для Мосгорсуда, Роскомнадзора и рекламодателей:: mosgorsud-torrent[собачка]yandex.ru