Торрент файл
скачать торрент магнет ссылка Добавлен: 16 мар 2016, 21:40
Размер: 1.49 ГБ
Сидеров: 2
Личеров: 0
Статус: (salma3)
Автор

СообщениеДобавлено: 16 мар 2016, 21:40 

Не в сети
Супермодератор
Аватара пользователя
Дата регистрации:
15 фев 2012, 16:44
Возраст: 27
Спасибо: 6233 / 2125
Сообщения: 33903
Страна: США
Жанр: боевик
Год выпуска: 1999
Продолжительность: 01:30:26

Перевод: Авторский (одноголосый закадровый) Юрий Сербин
Cубтитры: нет
Оригинальная аудиодорожка: нет

Режиссер: Бернард Зальцманн / Bernard Salzmann

В ролях: Майлз О’Киффи, Кристофер Митчум, Тимоти Боттомс, Боб Томас, Кристофер М. Дьюкс, Леонардо Мильян

Описание: В заштатном американском городишке группа правых экстремистов захватывает станцию космического слежения, чтобы с её помощью заполучить контроль над спутником и использовать его в своих целях.
И хотя ФБР и полиция не теряют времени даром, единственный человек, который может помешать боевикам осуществить задуманное — взятый в заложники инженер Брайс. Чтобы не допустить катастрофы, он вступает в неравный поединок с бандой головорезов…

Доп. информация:
Видеоряд с Синемагеддона, предоставил его edich2, за что ему большое спасибо.
Звуковая дорожка с переводом Ю. Сербина с лицензионной VHS от компании "Пирамида" предоставлена kiruxa-k, за что ему также огромное спасибо.
За синхронизацию звуковой дорожки выражаю благодарность JUSTKANT

Сэмпл: https://www.sendspace.com/file/kl6881

Качество видео: DVDRip
Формат видео: AVI
Видео: 720x544, 23.976 fps, MPEG-4 Visual, 2161 Kbps, XviD 1.2.1
Аудио: 48 KHz, AC3, 2 ch, 192 Kbps
General
Complete name : C:\Users\Битва за космос.avi
Format : AVI
Format/Info : Audio Video Interleave
File size : 1.49 GiB
Duration : 1h 30mn
Overall bit rate : 2 362 Kbps
Writing application : VirtualDubMod 1.5.10.2 (build 2540/release)
Writing library : VirtualDubMod build 2540/release

Video
ID : 0
Format : MPEG-4 Visual
Format profile : Advanced Simple@L5
Format settings, BVOP : 1
Format settings, QPel : No
Format settings, GMC : No warppoints
Format settings, Matrix : Custom
Codec ID : XVID
Codec ID/Hint : XviD
Duration : 1h 30mn
Bit rate : 2 161 Kbps
Width : 720 pixels
Height : 544 pixels
Display aspect ratio : 4:3
Frame rate : 23.976 fps
Color space : YUV
Chroma subsampling : 4:2:0
Bit depth : 8 bits
Scan type : Progressive
Compression mode : Lossy
Bits/(Pixel*Frame) : 0.230
Stream size : 1.36 GiB (91%)
Writing library : XviD 1.2.1 (UTC 2008-12-04)

Audio
ID : 1
Format : AC-3
Format/Info : Audio Coding 3
Mode extension : CM (complete main)
Format settings, Endianness : Big
Codec ID : 2000
Duration : 1h 30mn
Bit rate mode : Constant
Bit rate : 192 Kbps
Channel(s) : 2 channels
Channel positions : Front: L R
Sampling rate : 48.0 KHz
Bit depth : 16 bits
Compression mode : Lossy
Stream size : 124 MiB (8%)
Alignment : Split accross interleaves
Interleave, duration : 42 ms (1.00 video frame)
Interleave, preload duration : 500 ms


_________________
Проголосуй за трекер Открытый торрент трекер - RUS-MEDIA.ORG

Проголосуй Открытый торрент трекер - RUS-MEDIA.ORG



реклама партнёра


Вернуться к началу
 Профиль Отправить личное сообщение  
 
   Похожие торренты   Автор   Торрент   Размер 
В этой теме нет новых непрочитанных сообщений. BBC : Планеты / BBC : The Planets (Дэвид МакНаб) [1999, Документальный, космос, DVDRip]

salma3

0 | 0

5.47 ГБ

В этой теме нет новых непрочитанных сообщений. Вечная битва / Вечная битва: Код Омега 2 / Megiddo: The Omega Code 2 [фантастика, фэнтези, боевик, 2001] DVDRip, Mvo

salma3

45 | 42

1.37 ГБ

В этой теме нет новых непрочитанных сообщений. Класс 1999 / Class of 1999 [ужасы, фантастика, боевик, 1990] DVDRip-AVC, Dvo

salma3

128 | 38

2.66 ГБ

В этой теме нет новых непрочитанных сообщений. Класс 1999: Новый учитель / Class of 1999 II: The Substitute [ужасы, фантастика, боевик, триллер, 1994] DVDRip-AVC, Dvo

salma3

65 | 11

2.48 ГБ

В этой теме нет новых непрочитанных сообщений. Чернокнижник 3: Последняя битва / Warlock III: The End of Innocence [ужасы, фэнтези, 1999] WEB-DL 720p, Dvo

salma3

41 | 3

2.92 ГБ

В этой теме нет новых непрочитанных сообщений. Битва / Andolan [Боевик, драма, комедия, 1995] DVDRip, Avo

salma3

1 | 5

1.46 ГБ

В этой теме нет новых непрочитанных сообщений. Discovery. Космос наизнанку / Strip the Cosmos [02x01-02] [научно-познавательный, астрономия, космос, 2016] HDTVRip, Dvo

salma3

129 | 41

1.6 ГБ


Начать новую тему Ответить на тему  [ 1 сообщение ] 




Для Мосгорсуда, Роскомнадзора и рекламодателей:: mosgorsud-torrent[собачка]yandex.ru