Торрент файл
скачать торрент магнет ссылка Добавлен: 16 мар 2016, 17:27
Размер: 2.13 ГБ
Сидеров: 314
Личеров: 3
Статус: (salma3)
Автор

СообщениеДобавлено: 16 мар 2016, 17:27 

Не в сети
Супермодератор
Аватара пользователя
Дата регистрации:
15 фев 2012, 16:44
Возраст: 27
Спасибо: 5139 / 2090
Сообщения: 17432
Перевод: Профессиональный (полное дублирование) iTunes, субтитры: русские, английские
Формат: BDRip-AVC, MKV, H.264, AC3
Страна: Испания, Канада
Режиссер: Алехандро Аменабар
Жанр: триллер, драма, криминал, детектив
Продолжительность: 01:46:04
Год выпуска: 2015

В ролях: Итан Хоук, Эмма Уотсон, Дэвид Тьюлис, Лотер Блюто, Дейл Дикки, Давид Денсик, Девон Бостик, Аарон Эшмор, Питер МакНейл, Адам Батчер

Описание: В ходе расследования дела Анджелы Грей детектив Брюс Киннер вынужден обратиться к психологу для выявления ее подавленных воспоминаний. Сеанс регрессивного гипноза открывает ужасающие факты — по ночам с согласия отца над девушкой проводились сатанинские ритуалы. Желая защитить девушку от преследования зловещего тайного общества, детектив оказывается втянут в пугающий мир оккультизма. То, что ему противостоит, находится за гранью понимания и способно бросить вызов его убеждениям и вере.



Видео: 1128x470 (2.40:1), 23.976 fps, AVC MPEG-4 (H.264), ~2046 kbps, 0.161 bit/pixel
Аудио #1: Русский: 48 kHz, AC3 Dolby Digital, 3/2 (L,C,R,l,r) + LFE ch, ~384 kbps [Профессиональный (полное дублирование)]
Аудио #2: Английский: 48 kHz, AC3 Dolby Digital, 3/2 (L,C,R,l,r) + LFE ch, ~448 kbps [Оригинал]

Общее
Уникальный идентификатор : 237948988764993974631033663831192943373 (0xB3034EEAC6F93752BE624722F944BB0D)
Полное имя : Zatmeniye.2015.DUAL.BDRip.x264.-HELLYWOOD.mkv
Формат : Matroska
Версия формата : Version 4 / Version 2
Размер файла : 2,13 Гбайт
Длительность : 1 ч. 46 м.
Общий поток : 2875 Кбит/сек
Название фильма : Regression (2015) - HELLYWOOD
Дата кодирования : UTC 2016-03-10 10:32:52
Программа кодирования : mkvmerge v5.9.0 ('On The Loose') built on Dec 15 2012 16:39:58
Библиотека кодирования : libebml v1.3.0 + libmatroska v1.4.0

Видео
Идентификатор : 1
Формат : AVC
Формат/Информация : Advanced Video Кодек
Профиль формата :
Параметр CABAC формата : Да
Параметр ReFrames формата : 10 кадров
Идентификатор кодека : V_MPEG4/ISO/AVC
Длительность : 1 ч. 46 м.
Битрейт : 2046 Кбит/сек
Ширина : 1128 пикселей
Высота : 470 пикселей
Соотношение сторон : 2,40:1
Режим частоты кадров : Постоянный
Частота кадров : 23,976 кадра/сек
Цветовое пространство : YUV
Субдискретизация насыщенности : 4:2:0
Битовая глубина : 8 бит
Тип развёртки : Прогрессивная
Бит/(Пиксели*Кадры) : 0.161
Размер потока : 1,47 Гбайт (69%)
Заголовок : potroks
Библиотека кодирования : x264 core 146 r2538 121396c
Настройки программы : cabac=1 / ref=10 / deblock=1:-2:-2 / analyse=0x3:0x113 / me=umh / subme=11 / psy=1 / psy_rd=1.00:0.05 / mixed_ref=1 / me_range=48 / chroma_me=1 / trellis=2 / 8x8dct=1 / cqm=0 / deadzone=21,11 / fast_pskip=0 / chroma_qp_offset=-3 / threads=9 / lookahead_threads=2 / sliced_threads=0 / nr=0 / decimate=0 / interlaced=0 / bluray_compat=0 / constrained_intra=0 / bframes=11 / b_pyramid=2 / b_adapt=2 / b_bias=0 / direct=3 / weightb=1 / open_gop=0 / weightp=2 / keyint=240 / keyint_min=23 / scenecut=40 / intra_refresh=0 / rc_lookahead=60 / rc=2pass / mbtree=0 / bitrate=2046 / ratetol=1.0 / qcomp=0.70 / qpmin=0 / qpmax=69 / qpstep=4 / cplxblur=20.0 / qblur=0.5 / vbv_maxrate=14000 / vbv_bufsize=14000 / nal_hrd=none / filler=0 / ip_ratio=1.40 / pb_ratio=1.30 / aq=1:0.80
Язык : English
Default : Да
Forced : Нет

Аудио #1
Идентификатор : 2
Формат : AC-3
Формат/Информация : Audio Coding 3
Расширение режима : CM (complete main)
Параметр Endianness формата : Big
Идентификатор кодека : A_AC3
Длительность : 1 ч. 46 м.
Вид битрейта : Постоянный
Битрейт : 384 Кбит/сек
Каналы : 6 каналов
Расположение каналов : Front: L C R, Side: L R, LFE
Частота : 48,0 КГц
Метод сжатия : С потерями
Размер потока : 291 Мбайт (13%)
Заголовок : Dub | DD 5.1 @ 384 kbps - iTunes
Язык : Russian
Default : Да
Forced : Нет

Аудио #2
Идентификатор : 3
Формат : AC-3
Формат/Информация : Audio Coding 3
Расширение режима : CM (complete main)
Параметр Endianness формата : Big
Идентификатор кодека : A_AC3
Длительность : 1 ч. 46 м.
Вид битрейта : Постоянный
Битрейт : 448 Кбит/сек
Каналы : 6 каналов
Расположение каналов : Front: L C R, Side: L R, LFE
Частота : 48,0 КГц
Метод сжатия : С потерями
Размер потока : 340 Мбайт (16%)
Заголовок : Original | DD 5.1 @ 448 kbps
Язык : English
Default : Нет
Forced : Нет

Текст #1
Идентификатор : 4
Формат : UTF-8
Идентификатор кодека : S_TEXT/UTF8
Идентификатор кодека/Информация : UTF-8 Plain Text
Язык : Russian
Default : Нет
Forced : Нет

Текст #2
Идентификатор : 5
Формат : UTF-8
Идентификатор кодека : S_TEXT/UTF8
Идентификатор кодека/Информация : UTF-8 Plain Text
Заголовок : Full
Язык : English
Default : Нет
Forced : Нет

Текст #3
Идентификатор : 6
Формат : UTF-8
Идентификатор кодека : S_TEXT/UTF8
Идентификатор кодека/Информация : UTF-8 Plain Text
Заголовок : SDH
Язык : English
Default : Нет
Forced : Нет

Текст #4
Идентификатор : 7
Формат : UTF-8
Идентификатор кодека : S_TEXT/UTF8
Идентификатор кодека/Информация : UTF-8 Plain Text
Заголовок : SDH-Colored
Язык : English
Default : Нет
Forced : Нет

Меню
00:00:00.000 : en:Chapter 01
00:12:13.524 : en:Chapter 02
00:19:55.527 : en:Chapter 03
00:29:55.877 : en:Chapter 04
00:39:52.098 : en:Chapter 05
00:48:11.388 : en:Chapter 06
00:57:51.759 : en:Chapter 07
01:09:43.137 : en:Chapter 08
01:16:52.941 : en:Chapter 09
01:23:58.450 : en:Chapter 10
01:30:00.978 : en:Chapter 11
01:36:06.427 : en:Chapter 12





_________________



реклама партнёра


Вернуться к началу
 Профиль Отправить личное сообщение  
 
   Похожие торренты   Автор   Торрент   Размер 
В этой теме нет новых непрочитанных сообщений. Затмение / Regression [триллер, драма, криминал, детектив, 2015] BDRip, Dub [iTunes]

salma3

1043 | 38

1.41 ГБ

В этой теме нет новых непрочитанных сообщений. Затмение [ужасы, триллер, детектив, 2015] BDRip 720p, dub [Чистый звук]

Dracon

420 | 8

4.66 ГБ

В этой теме нет новых непрочитанных сообщений. Затмение [ужасы, триллер, детектив, 2015] HDRip, dub [Чистый звук]

Dracon

484 | 13

1.36 ГБ

В этой теме нет новых непрочитанных сообщений. Убийца / Sicario [боевик, триллер, драма, криминал, детектив, 2015] BDRip-AVC, Dub

salma3

100 | 2

2.13 ГБ

В этой теме нет новых непрочитанных сообщений. Кибер / Blackhat [боевик, триллер, драма, криминал, детектив, 2015] BDRip-AVC, Dub+Sub

salma3

59 | 5

2.18 ГБ

В этой теме нет новых непрочитанных сообщений. Убийца / Sicario [боевик, триллер, драма, криминал, детектив, 2015] BDRip-AVC, Dub

salma3

61 | 5

1.4 ГБ

В этой теме нет новых непрочитанных сообщений. Экстрасенсы / Утешение / Solace [триллер, драма, криминал, детектив, 2015] BDRip-AVC, Dub [лицензия]

salma3

257 | 50

2.18 ГБ


Начать новую тему Ответить на тему  [ 1 сообщение ] 




Для Мосгорсуда, Роскомнадзора и рекламодателей:: mosgorsud-torrent[собачка]yandex.ru