Торрент файл
скачать торрент магнет ссылка Добавлен: 16 мар 2016, 15:44
Размер: 1.45 ГБ
Сидеров: 3
Личеров: 1
Статус: (salma3)
Автор

СообщениеДобавлено: 16 мар 2016, 15:44 

В сети
Супермодератор
Аватара пользователя
Дата регистрации:
15 фев 2012, 16:44
Возраст: 27
Спасибо: 5130 / 2089
Сообщения: 17350
Страна: Канада
Жанр: Триллер , детектив
Год выпуска: 1995
Продолжительность: 1:30:24

Перевод: Авторский (одноголосый закадровый) Л. Володарский
Cубтитры: нет
Режиссер: Дэмиан Ли / Damian Lee

В ролях: Джефф Уинкотт, Мишель Джонсон, Аманда Тэппинг, Фалконер Абрахам, Эммануэль Шрики, Кристина Кокс

Описание: Возвращаясь домой после проведенного вместе с друзьями отпуска в горах, Билли Кастл знакомится с женщиной и проводит с ней ночь. Очнувшись от наркотического сна, он обнаруживает, что ночь страсти обернулась для него самым настоящим кошмаром — кто-то хирургическим путем удалил одну из его почек. Полиция не проявила интереса к этому делу, и Билли решает сам найти тех, кто поступил с ним так жестоко…

Доп. информация: За звуковую дорожку спасибо DeadBigBoy

Сэмпл: https://www.sendspace.com/file/vtlzwl

Качество видео: SATRip
Формат видео: AVI
Видео: XviD MPEG-4 , 640x480 (1.33:1) , 25.000 fps , 2 099 Kbps
Аудио: АC3 , 48 kHz , 192.00 kbps avg , 2/0 (L,R) ch
Complete name Донор 1995.avi
Format : AVI
Format/Info : Audio Video Interleave
File size : 1.45 GiB
Duration : 1h 30mn
Overall bit rate : 2 301 Kbps
Writing application : VirtualDubMod 1.5.10.3 | http://www.virtualdub-fr.org || (build 2550/release)
Writing library : VirtualDub build 35491/release

Video
ID : 0
Format : MPEG-4 Visual
Format profile : Advanced Simple@L5
Format settings, BVOP : 1
Format settings, QPel : No
Format settings, GMC : No warppoints
Format settings, Matrix : Custom
Codec ID : XVID
Codec ID/Hint : XviD
Duration : 1h 30mn
Bit rate : 2 099 Kbps
Width : 640 pixels
Height : 480 pixels
Display aspect ratio : 4:3
Frame rate : 25.000 fps
Color space : YUV
Chroma subsampling : 4:2:0
Bit depth : 8 bits
Scan type : Progressive
Compression mode : Lossy
Bits/(Pixel*Frame) : 0.273
Stream size : 1.33 GiB (91%)
Writing library : XviD 73

Audio
ID : 1
Format : AC-3
Format/Info : Audio Coding 3
Mode extension : CM (complete main)
Format settings, Endianness : Big
Codec ID : 2000
Duration : 1h 30mn
Bit rate mode : Constant
Bit rate : 192 Kbps
Channel(s) : 2 channels
Channel positions : Front: L R
Sampling rate : 48.0 KHz
Frame rate : 31.250 fps (1536 spf)
Compression mode : Lossy
Stream size : 124 MiB (8%)
Alignment : Aligned on interleaves
Interleave, duration : 40 ms (1.00 video frame)
Interleave, preload duratio : 512 ms


_________________



реклама партнёра


Вернуться к началу
 Профиль Отправить личное сообщение  
 
   Похожие торренты   Автор   Торрент   Размер 
В этой теме нет новых непрочитанных сообщений. Donor - Triangle Of The Lost [1992, Technical, Thrash, Progressive Metal, MP3]

PriZraK

0 | 1

122.67 МБ

В этой теме нет новых непрочитанных сообщений. Без улик / Without Evidence [Триллер, детектив, драма, 1995] BDRip, Mvo

salma3

0 | 0

1.46 ГБ

В этой теме нет новых непрочитанных сообщений. Имитатор / Copycat [триллер, драма, криминал, детектив, 1995] DVD5, Mvo+Sub

salma3

4 | 2

4.26 ГБ

В этой теме нет новых непрочитанных сообщений. Правое дело / Just Cause [Триллер, Драма, Криминал, Детектив, 1995] BDRip, Dub

salma3

0 | 2

1.45 ГБ

В этой теме нет новых непрочитанных сообщений. Имитатор / Copycat [Триллер, драма, криминал, детектив, 1995] BDRip-AVC, Mvo+Dvo+Avo+Sub

salma3

46 | 7

4.66 ГБ

В этой теме нет новых непрочитанных сообщений. Сеть / The Net [Боевик, триллер, драма, криминал, детектив, 1995] BDRip 1080p, Mvo+Sub

salma3

26 | 5

9.73 ГБ

В этой теме нет новых непрочитанных сообщений. Повелитель иллюзий / Lord of Illusions [ужасы, триллер, детектив, 1995] DVDRip, Dub+Avo

salma3

23 | 4

1.46 ГБ


Начать новую тему Ответить на тему  [ 1 сообщение ] 




Для Мосгорсуда, Роскомнадзора и рекламодателей:: mosgorsud-torrent[собачка]yandex.ru