Торрент файл
скачать торрент магнет ссылка Добавлен: 16 мар 2016, 15:14
Размер: 1.46 ГБ
Сидеров: 19
Личеров: 0
Статус: (salma3)
Автор

СообщениеДобавлено: 16 мар 2016, 15:14 

Не в сети
Супермодератор
Аватара пользователя
Дата регистрации:
15 фев 2012, 16:44
Возраст: 27
Спасибо: 5143 / 2090
Сообщения: 17478
Год выхода: 1981
Жанр: Боевик, триллер, криминал
Режиссер: Стив Карвер

В ролях: Чак Норрис, Кристофер Ли, Ричард Раундтри, Мэтт Кларк, Мако, Мэгги Купер, Розалинд Чао, Стюарт Пэнкин, Профессор Тору Танака, Сэм Хайона

О фильме:
После гибели своего напарника полицейский из отдела по борьбе с наркотиками Шон Кейн вынужден уйти в отставку. Но когда убивают тележурналистку Линду, подругу его погибшего товарища, Кейн начинает собственное расследование. Он выясняет, что убийства имеют прямое отношение к тайным операциям с наркотиками, которые проводят гонконгские триады. Узнав, что в криминальном бизнесе замешаны и некоторые из его коллег-полицейских, Кейн берет правосудие в свои руки и решает сам, в одиночку, разобраться с преступниками...

Страна: США
Студия: Adams Apple Film Company, South Street Films, Wescom Barber International
Продолжительность: 01:45:19
Перевод: Профессиональный многоголосый

Файл
Кодек: MPEG-4 AVC
Качество: BDRip (AVC)
Видео: MPEG-4 AVC, 1344 Кбит/с, 768x416, 23.976 кадр/с
Аудио: 48 kHz, AC3 Dolby Digital, 3/2 (L,C,R,l,r) + LFE ch, ~448.00 kbps | R5
Аудио 2: 48 kHz, AC3 Dolby Digital, 2/0 (L,R) ch, ~192 kbps | Eng
Семпл
General
Unique ID : 219370544424887683108697473439081535635 (0xA5093AE40FBDC38C920A483E6AC99893)
Format : Matroska
Format version : Version 2
File size : 1.46 GiB
Duration : 1h 45mn
Overall bit rate : 1 986 Kbps
Encoded date : UTC 2016-03-14 17:24:47
Writing application : mkvmerge v7.8.0 ('River Man') 32bit built on Apr 3 2015 12:11:22
Writing library : libebml v1.3.1 + libmatroska v1.4.2
Video
ID : 1
Format : AVC
Format/Info : Advanced Video Codec
Format profile : High@L4.1
Format settings, CABAC : Yes
Format settings, ReFrames : 8 frames
Codec ID : V_MPEG4/ISO/AVC
Duration : 1h 45mn
Bit rate : 1 344 Kbps
Width : 768 pixels
Height : 416 pixels
Display aspect ratio : 1.85:1
Frame rate mode : Constant
Frame rate : 23.976 fps
Color space : YUV
Chroma subsampling : 4:2:0
Bit depth : 8 bits
Scan type : Progressive
Bits/(Pixel*Frame) : 0.175
Stream size : 982 MiB (66%)
Writing library : x264 core 146 r2538 121396c
Encoding settings : cabac=1 / ref=8 / deblock=1:-2:-1 / analyse=0x3:0x133 / me=umh / subme=10 / psy=1 / psy_rd=1.00:0.20 / mixed_ref=1 / me_range=32 / chroma_me=1 / trellis=2 / 8x8dct=1 / cqm=0 / deadzone=21,11 / fast_pskip=1 / chroma_qp_offset=-3 / threads=3 / lookahead_threads=1 / sliced_threads=0 / nr=0 / decimate=1 / interlaced=0 / bluray_compat=0 / constrained_intra=0 / bframes=8 / b_pyramid=2 / b_adapt=2 / b_bias=0 / direct=3 / weightb=1 / open_gop=0 / weightp=2 / keyint=250 / keyint_min=23 / scenecut=40 / intra_refresh=0 / rc_lookahead=60 / rc=2pass / mbtree=1 / bitrate=1344 / ratetol=1.0 / qcomp=0.60 / qpmin=0 / qpmax=69 / qpstep=4 / cplxblur=20.0 / qblur=0.5 / ip_ratio=1.40 / aq=1:1.00
Default : Yes
Forced : No
Audio #1
ID : 2
Format : AC-3
Format/Info : Audio Coding 3
Mode extension : CM (complete main)
Format settings, Endianness : Big
Codec ID : A_AC3
Duration : 1h 45mn
Bit rate mode : Constant
Bit rate : 448 Kbps
Channel(s) : 6 channels
Channel positions : Front: L C R, Side: L R, LFE
Sampling rate : 48.0 KHz
Bit depth : 16 bits
Compression mode : Lossy
Stream size : 337 MiB (23%)
Title : R5
Language : Russian
Default : Yes
Forced : No
Audio #2
ID : 3
Format : AC-3
Format/Info : Audio Coding 3
Mode extension : CM (complete main)
Format settings, Endianness : Big
Codec ID : A_AC3
Duration : 1h 45mn
Bit rate mode : Constant
Bit rate : 192 Kbps
Channel(s) : 2 channels
Channel positions : Front: L R
Sampling rate : 48.0 KHz
Bit depth : 16 bits
Compression mode : Lossy
Stream size : 144 MiB (10%)
Language : English
Default : No
Forced : No

Релиз от:
Автор: Sem-te


_________________



реклама партнёра


Вернуться к началу
 Профиль Отправить личное сообщение  
 
   Похожие торренты   Автор   Торрент   Размер 
В этой теме нет новых непрочитанных сообщений. Око за око / An Eye for an Eye [боевик, триллер, криминал, приключения, 1981] BDRip, Mvo+Dvo

salma3

2 | 0

2.18 ГБ

В этой теме нет новых непрочитанных сообщений. Око за око / An Eye for an Eye [боевик, триллер, криминал, 1981] BDRip 1080p, 4Avo+Mvo+Sub

salma3

22 | 3

8.59 ГБ

В этой теме нет новых непрочитанных сообщений. Чужая земля / Outland [ фантастика, боевик, триллер, криминал, 1981] BDRip 1080p, Dub+Dvo+Sub

salma3

56 | 6

7.75 ГБ

В этой теме нет новых непрочитанных сообщений. За шкуру полицейского / Pour la peau d'un flic [боевик, мелодрама, криминал, 1981] BDRip 720p, Mvo+Sub

salma3

71 | 61

5.93 ГБ

В этой теме нет новых непрочитанных сообщений. Путь Каттера / Cutter's Way [триллер, драма, криминал, детектив, 1981] BDRip 720p, Mvo

salma3

12 | 3

3.6 ГБ

В этой теме нет новых непрочитанных сообщений. Ночные ястребы / Nighthawks [Боевик, триллер, криминал, 1981] HDTVRip-AVC, Mvo+3Avo+Sub

salma3

0 | 0

2.22 ГБ

В этой теме нет новых непрочитанных сообщений. Ночные ястребы / Nighthawks [Боевик, триллер, криминал, 1981] HDTVRip 720p, Mvo+3Avo+Sub

salma3

2 | 1

3.82 ГБ


Начать новую тему Ответить на тему  [ 1 сообщение ] 




Для Мосгорсуда, Роскомнадзора и рекламодателей:: mosgorsud-torrent[собачка]yandex.ru