Торрент файл
скачать торрент магнет ссылка Добавлен: 16 мар 2016, 14:57
Размер: 2.97 ГБ
Сидеров: 78
Личеров: 15
Статус: (salma3)
Автор

СообщениеДобавлено: 16 мар 2016, 14:57 

Не в сети
Супермодератор
Аватара пользователя
Дата регистрации:
15 фев 2012, 16:44
Возраст: 27
Спасибо: 5143 / 2090
Сообщения: 17495
Год выхода: 1996
Страна: США
Студия: New Line Cinema, CineTel Pictures, MG Entertainment
Продолжительность: 01:47:12
Жанр: триллер, драма
Режиссер: Энн Гурсо

В ролях: Алисса Милано, Джонатон Шаех, Ксандер Беркли, Белинда Бауэр, Камилла Белль, Кэтрин Дора Браун, Уолтер Ким, Виктория Хаас, Тара Эллисон, Кейт Роджер, Ховард Браун, ...

Перевод:
Профессиональный (многоголосный, закадровый) MVO РТР
Авторский (одноголосый, закадровый) Сербин Юрий Владимирович
Авторский (одноголосый, закадровый) Карцев Петр
Авторский (одноголосый, закадровый) Иванов Михаил Николаевич

О фильме: Молодая художница Лили приезжает учиться искусству в Лос-Анджелес из глуши Мичигана. Она становится любовницей скульптора и рисовальщика, занимающегося в одном с ней классе и живущего в той же богемной общаге. К ней явно не равнодушен преподаватель, нанявший ее приходящей няней к своей дочери, — он просит ее раздеться и снова берется за карандаш после долгого перерыва.
Девушка же читает найденный в комнате дневник девушки Айви, жившей там до нее. Айви мечтала о том, чтобы «разбивать сердца и открывать мужчинам темные, плохие места, в которых они не бывали». Под влиянием этих «откровений» Лили создает себе соответствующий образ и приступает к реализации такой программы развлечений…



Кодек: x264
Качество: DVDRip-AVC
Видео: 720x540 , 3000 kbps, 23,976 fps
Аудио #1: AC-3, 2 ch, 192 kbps (Rus) - MVO РТР
Аудио #2: AC-3, 2 ch, 192 kbps (Rus) - AVO Сербин Юрий Владимирович
Аудио #3: AC-3, 2 ch, 192 kbps (Rus) - AVO Карцев Петр
Аудио #4: AC-3, 2 ch, 192 kbps (Rus) - AVO Иванов Михаил Николаевич
Аудио #5: AC-3, 2 ch, 192 kbps (Eng)
Субтитры: Английские
За исходник спасибо - max1wq
В первой и второй дорожке в самом начале пару фраз от Иванова.

x264 [info]: frame I:931 Avg QP:12.61 size: 62444
x264 [info]: frame P:33307 Avg QP:14.94 size: 29931
x264 [info]: frame B:119978 Avg QP:17.11 size: 11305
x264 [info]: consecutive B-frames: 1.0% 1.8% 6.4% 26.1% 35.5% 20.2% 4.1% 2.9% 0.7% 0.5% 0.2% 0.2% 0.3%
Общее
Уникальный идентификатор : 252185318507266750102958274831539237361 (0xBDB9202A41E94C1097EA2DA6FFAFF1F1)
Полное имя : Ядовитый плющ 2 Лили (Poison Ivy II) 1996 DVDRip.mkv
Формат : Matroska
Версия формата : Version 2
Размер файла : 2,97 Гбайт
Продолжительность : 1 ч. 47 м.
Общий поток : 3961 Кбит/сек
Дата кодирования : UTC 2016-03-14 23:56:00
Программа кодирования : mkvmerge v4.0.0 ('The Stars were mine') сборка от Jun 6 2010 16:18:42
Библиотека кодирования : libebml v1.0.0 + libmatroska v1.0.0
Видео
Идентификатор : 1
Формат : AVC
Формат/Информация : Advanced Video Codec
Профиль формата : High@L4.1
Параметр CABAC формата : Да
Параметр ReFrames формата : 9 кадров
Идентификатор кодека : V_MPEG4/ISO/AVC
Продолжительность : 1 ч. 47 м.
Битрейт : 3000 Кбит/сек
Ширина : 720 пикселей
Высота : 540 пикселей
Соотношение сторон : 4:3
Режим частоты кадров : Постоянный
Частота кадров : 23,976 кадра/сек
Цветовое пространство : YUV
Субдискретизация насыщенности : 4:2:0
Битовая глубина : 8 бит
Тип развёртки : Прогрессивная
Бит/(Пиксели*Кадры) : 0.322
Размер потока : 2,19 Гбайт (74%)
Библиотека кодирования : x264 core 146 r2538 121396c
Настройки программы : cabac=1 / ref=9 / deblock=1:-3:-3 / analyse=0x3:0x133 / me=umh / subme=11 / psy=1 / psy_rd=1.00:0.00 / mixed_ref=1 / me_range=32 / chroma_me=1 / trellis=2 / 8x8dct=1 / cqm=0 / deadzone=21,11 / fast_pskip=0 / chroma_qp_offset=-2 / threads=12 / lookahead_threads=2 / sliced_threads=0 / nr=0 / decimate=0 / interlaced=0 / bluray_compat=0 / constrained_intra=0 / bframes=12 / b_pyramid=2 / b_adapt=2 / b_bias=0 / direct=3 / weightb=1 / open_gop=0 / weightp=2 / keyint=240 / keyint_min=23 / scenecut=40 / intra_refresh=0 / rc=2pass / mbtree=0 / bitrate=3000 / ratetol=1.0 / qcomp=0.60 / qpmin=0 / qpmax=69 / qpstep=4 / cplxblur=20.0 / qblur=0.5 / ip_ratio=1.40 / pb_ratio=1.30 / aq=1:0.80
Язык : English
Default : Нет
Forced : Нет
Аудио #1
Идентификатор : 2
Формат : AC-3
Формат/Информация : Audio Coding 3
Расширение режима : CM (complete main)
Параметр Endianness формата : Big
Идентификатор кодека : A_AC3
Продолжительность : 1 ч. 47 м.
Вид битрейта : Постоянный
Битрейт : 192 Кбит/сек
Каналы : 2 канала
Расположение каналов : Front: L R
Частота : 48,0 КГц
Метод сжатия : С потерями
Размер потока : 147 Мбайт (5%)
Заголовок : MVO РТР
Язык : Russian
Default : Нет
Forced : Нет
Аудио #2
Идентификатор : 3
Формат : AC-3
Формат/Информация : Audio Coding 3
Расширение режима : CM (complete main)
Параметр Endianness формата : Big
Идентификатор кодека : A_AC3
Продолжительность : 1 ч. 47 м.
Вид битрейта : Постоянный
Битрейт : 192 Кбит/сек
Каналы : 2 канала
Расположение каналов : Front: L R
Частота : 48,0 КГц
Метод сжатия : С потерями
Размер потока : 147 Мбайт (5%)
Заголовок : AVO Сербин Юрий Владимирович
Язык : Russian
Default : Нет
Forced : Нет
Аудио #3
Идентификатор : 4
Формат : AC-3
Формат/Информация : Audio Coding 3
Расширение режима : CM (complete main)
Параметр Endianness формата : Big
Идентификатор кодека : A_AC3
Продолжительность : 1 ч. 47 м.
Вид битрейта : Постоянный
Битрейт : 192 Кбит/сек
Каналы : 2 канала
Расположение каналов : Front: L R
Частота : 48,0 КГц
Метод сжатия : С потерями
Размер потока : 147 Мбайт (5%)
Заголовок : AVO Карцев Петр
Язык : Russian
Default : Нет
Forced : Нет
Аудио #4
Идентификатор : 5
Формат : AC-3
Формат/Информация : Audio Coding 3
Расширение режима : CM (complete main)
Параметр Endianness формата : Big
Идентификатор кодека : A_AC3
Продолжительность : 1 ч. 47 м.
Вид битрейта : Постоянный
Битрейт : 192 Кбит/сек
Каналы : 2 канала
Расположение каналов : Front: L R
Частота : 48,0 КГц
Метод сжатия : С потерями
Размер потока : 147 Мбайт (5%)
Заголовок : AVO Иванов Михаил Николаевич
Язык : Russian
Default : Нет
Forced : Нет
Аудио #5
Идентификатор : 6
Формат : AC-3
Формат/Информация : Audio Coding 3
Профиль формата : Dolby Digital
Расширение режима : CM (complete main)
Параметр Endianness формата : Big
Идентификатор кодека : A_AC3
Продолжительность : 1 ч. 47 м.
Вид битрейта : Постоянный
Битрейт : 192 Кбит/сек
Каналы : 2 канала
Расположение каналов : Front: L R
Частота : 48,0 КГц
Метод сжатия : С потерями
Размер потока : 147 Мбайт (5%)
Язык : English
Default : Нет
Forced : Нет
Текст
Идентификатор : 7
Формат : UTF-8
Идентификатор кодека : S_TEXT/UTF8
Идентификатор кодека/Информация : UTF-8 Plain Text
Язык : English
Default : Нет
Forced : Нет



_________________



реклама партнёра


Вернуться к началу
 Профиль Отправить личное сообщение  
 
   Похожие торренты   Автор   Торрент   Размер 
В этой теме нет новых непрочитанных сообщений. Ядовитый плющ: Новое совращение / Poison Ivy: The New Seduction [триллер, драма, 1997] DVDRip-AVC, Mvo+Dvo

salma3

90 | 11

2.53 ГБ

В этой теме нет новых непрочитанных сообщений. Ядовитый плющ: Новое совращение / Poison Ivy: The New Seduction [триллер, драма, 1997] WEB-DL 1080p, Dvo+Mvo

salma3

2 | 1

3.61 ГБ

В этой теме нет новых непрочитанных сообщений. Ядовитый плющ: Секретное общество / Poison Ivy: The Secret Society [Фэнтези, триллер, драма, 2008] HDRip, Dub

salma3

62 | 4

1.45 ГБ

В этой теме нет новых непрочитанных сообщений. Любовь как яд / Un poison violent [Драма, 2010] DVDRip, Avo

salma3

20 | 5

1.37 ГБ

В этой теме нет новых непрочитанных сообщений. Саботаж / Sabotage [боевик, триллер, драма, 1996] DVDRip, Mvo

salma3

28 | 5

1.46 ГБ

В этой теме нет новых непрочитанных сообщений. Выход в красное / Exit in Red [триллер, драма, криминал, 1996] DVDRip, Mvo

salma3

23 | 5

1.46 ГБ

В этой теме нет новых непрочитанных сообщений. Приговор времени / Past Perfect [Фантастика, боевик, триллер, драма, 1996] DVDRip, Dvo

salma3

201 | 7

1.37 ГБ


Начать новую тему Ответить на тему  [ 1 сообщение ] 




Для Мосгорсуда, Роскомнадзора и рекламодателей:: mosgorsud-torrent[собачка]yandex.ru