Торрент файл
скачать торрент магнет ссылка Добавлен: 16 мар 2016, 14:53
Размер: 2.53 ГБ
Сидеров: 90
Личеров: 11
Статус: (salma3)
Автор

СообщениеДобавлено: 16 мар 2016, 14:53 

Не в сети
Супермодератор
Аватара пользователя
Дата регистрации:
15 фев 2012, 16:44
Возраст: 27
Спасибо: 5121 / 2089
Сообщения: 17342
Год выхода: 1997
Страна: США
Студия: New Line Cinema, CineTel Pictures, MG Entertainment
Продолжительность: 01:34:16
Жанр: триллер, драма
Режиссер: Курт Фосс

В ролях: Джейми Прессли, Меган Эдвардс, Майкл Дес Баррес, Грег Вон, Сьюзен Тайррелл, Мерет Ван Камп, Афена Мэсси, Шэнна Моуклер, Теренс Винтер, Сьюзэн Уорд, Майкл МакЛафферти, ...

Перевод:
Профессиональный (многоголосный, закадровый)
Профессиональный (двухголосый, закадровый)
О фильме: Вайлет, подросшая дочь служанки, много лет назад выгнанной из дома мистером Гриром, решила отомстить за поруганную честь своей мамочки. Она явилась в роскошный особняк Гриров и хитростью поселилась в нем. Эта девица сумела войти в их налаженную жизнь и перевернула все верх дном…



Кодек: x264
Качество: DVDRip-AVC
Видео: 720x540 , 3000 kbps, 23,976 fps
Аудио #1: AC-3, 2 ch, 192 kbps (Rus) - MVO
Аудио #2: AC-3, 2 ch, 192 kbps (Rus) - DVO
Аудио #3: AC-3, 6 ch, 448 kbps (Eng)
Субтитры: Английские (VobSub с текстами песен), Английские

За исходник спасибо - max1wq
WEB-DL конечно по детальнее будет. Ну а на DVD кадр значительно полнее. Придётся иметь обе версии. )
x264 [info]: frame I:1123 Avg QP:11.88 size: 69148
x264 [info]: frame P:30043 Avg QP:14.09 size: 31669
x264 [info]: frame B:104458 Avg QP:16.25 size: 10448
x264 [info]: consecutive B-frames: 1.4% 1.6% 7.5% 29.0% 36.4% 17.4% 3.3% 2.4% 0.4% 0.2% 0.1% 0.1% 0.2%
Общее
Уникальный идентификатор : 196775432030547989640514007253211299572 (0x940991D6FD6F5931A6EFFB2358C23EF4)
Полное имя : Ядовитый плющ Новое совращение (Poison Ivy The New Seduction) 1997 DVDRip.mkv
Формат : Matroska
Версия формата : Version 2
Размер файла : 2,53 Гбайт
Продолжительность : 1 ч. 34 м.
Общий поток : 3835 Кбит/сек
Дата кодирования : UTC 2016-03-15 19:02:25
Программа кодирования : mkvmerge v4.0.0 ('The Stars were mine') сборка от Jun 6 2010 16:18:42
Библиотека кодирования : libebml v1.0.0 + libmatroska v1.0.0
Видео
Идентификатор : 1
Формат : AVC
Формат/Информация : Advanced Video Codec
Профиль формата : High@L4.1
Параметр CABAC формата : Да
Параметр ReFrames формата : 9 кадров
Идентификатор кодека : V_MPEG4/ISO/AVC
Продолжительность : 1 ч. 34 м.
Битрейт : 3000 Кбит/сек
Ширина : 720 пикселей
Высота : 540 пикселей
Соотношение сторон : 4:3
Режим частоты кадров : Постоянный
Частота кадров : 23,976 кадра/сек
Цветовое пространство : YUV
Субдискретизация насыщенности : 4:2:0
Битовая глубина : 8 бит
Тип развёртки : Прогрессивная
Бит/(Пиксели*Кадры) : 0.322
Размер потока : 1,93 Гбайт (76%)
Библиотека кодирования : x264 core 146 r2538 121396c
Настройки программы : cabac=1 / ref=9 / deblock=1:-3:-3 / analyse=0x3:0x133 / me=umh / subme=11 / psy=1 / psy_rd=1.00:0.00 / mixed_ref=1 / me_range=32 / chroma_me=1 / trellis=2 / 8x8dct=1 / cqm=0 / deadzone=21,11 / fast_pskip=0 / chroma_qp_offset=-2 / threads=12 / lookahead_threads=2 / sliced_threads=0 / nr=0 / decimate=0 / interlaced=0 / bluray_compat=0 / constrained_intra=0 / bframes=12 / b_pyramid=2 / b_adapt=2 / b_bias=0 / direct=3 / weightb=1 / open_gop=0 / weightp=2 / keyint=240 / keyint_min=23 / scenecut=40 / intra_refresh=0 / rc=2pass / mbtree=0 / bitrate=3000 / ratetol=1.0 / qcomp=0.60 / qpmin=0 / qpmax=69 / qpstep=4 / cplxblur=20.0 / qblur=0.5 / ip_ratio=1.40 / pb_ratio=1.30 / aq=1:0.80
Язык : English
Default : Нет
Forced : Нет
Аудио #1
Идентификатор : 2
Формат : AC-3
Формат/Информация : Audio Coding 3
Расширение режима : CM (complete main)
Параметр Endianness формата : Big
Идентификатор кодека : A_AC3
Продолжительность : 1 ч. 34 м.
Вид битрейта : Постоянный
Битрейт : 192 Кбит/сек
Каналы : 2 канала
Расположение каналов : Front: L R
Частота : 48,0 КГц
Метод сжатия : С потерями
Размер потока : 129 Мбайт (5%)
Заголовок : MVO
Язык : Russian
Default : Нет
Forced : Нет
Аудио #2
Идентификатор : 3
Формат : AC-3
Формат/Информация : Audio Coding 3
Расширение режима : CM (complete main)
Параметр Endianness формата : Big
Идентификатор кодека : A_AC3
Продолжительность : 1 ч. 34 м.
Вид битрейта : Постоянный
Битрейт : 192 Кбит/сек
Каналы : 2 канала
Расположение каналов : Front: L R
Частота : 48,0 КГц
Метод сжатия : С потерями
Размер потока : 129 Мбайт (5%)
Заголовок : DVO
Язык : Russian
Default : Нет
Forced : Нет
Аудио #3
Идентификатор : 4
Формат : AC-3
Формат/Информация : Audio Coding 3
Расширение режима : CM (complete main)
Параметр Endianness формата : Big
Идентификатор кодека : A_AC3
Продолжительность : 1 ч. 34 м.
Вид битрейта : Постоянный
Битрейт : 448 Кбит/сек
Каналы : 6 каналов
Расположение каналов : Front: L C R, Side: L R, LFE
Частота : 48,0 КГц
Метод сжатия : С потерями
Размер потока : 302 Мбайт (12%)
Язык : English
Default : Нет
Forced : Нет
Текст #1
Идентификатор : 5
Формат : VobSub
Режим смешивания : zlib
Идентификатор кодека : S_VOBSUB
Идентификатор кодека/Информация : Picture based subtitle format used on DVDs
Язык : English
Default : Нет
Forced : Нет
Текст #2
Идентификатор : 6
Формат : UTF-8
Идентификатор кодека : S_TEXT/UTF8
Идентификатор кодека/Информация : UTF-8 Plain Text
Язык : English
Default : Нет
Forced : Нет



_________________



реклама партнёра


Вернуться к началу
 Профиль Отправить личное сообщение  
 
   Похожие торренты   Автор   Торрент   Размер 
В этой теме нет новых непрочитанных сообщений. Ядовитый плющ: Новое совращение / Poison Ivy: The New Seduction [триллер, драма, 1997] WEB-DL 1080p, Dvo+Mvo

salma3

2 | 1

3.61 ГБ

В этой теме нет новых непрочитанных сообщений. Ядовитый плющ 2: Лили / Poison Ivy II [триллер, драма, 1996] DVDRip-AVC, Mvo+Avo

salma3

78 | 15

2.97 ГБ

В этой теме нет новых непрочитанных сообщений. Ядовитый плющ: Секретное общество / Poison Ivy: The Secret Society [Фэнтези, триллер, драма, 2008] HDRip, Dub

salma3

62 | 4

1.45 ГБ

В этой теме нет новых непрочитанных сообщений. Соблазнение / The Seduction [триллер, 1982] DVDRip, Avo

salma3

22 | 4

1.46 ГБ

В этой теме нет новых непрочитанных сообщений. Любовь как яд / Un poison violent [Драма, 2010] DVDRip, Avo

salma3

20 | 5

1.37 ГБ

В этой теме нет новых непрочитанных сообщений. Секс в небольшом городе / School for Seduction [Комедия, мелодрама, драма, 2004] DVDRip, Mvo

salma3

53 | 3

1.37 ГБ

В этой теме нет новых непрочитанных сообщений. Женщины и мужчины: Истории соблазнений / Women and Men: Stories of Seduction (Фредерик Рафаэл, Тони Ричардсон, Кен Рассел / Frederic Raphael, Tony Richardson, Ken Russell) [1990г., драма, мелодрама, DVDRip] MVO

Alfredovich

42 | 11

1.45 ГБ


Начать новую тему Ответить на тему  [ 1 сообщение ] 




Для Мосгорсуда, Роскомнадзора и рекламодателей:: mosgorsud-torrent[собачка]yandex.ru