Торрент файл
скачать торрент магнет ссылка Добавлен: 16 мар 2016, 14:51
Размер: 1.72 ГБ
Сидеров: 44
Личеров: 9
Статус: (salma3)
Автор

СообщениеДобавлено: 16 мар 2016, 14:51 

Не в сети
Супермодератор
Аватара пользователя
Дата регистрации:
15 фев 2012, 16:44
Возраст: 27
Спасибо: 5130 / 2089
Сообщения: 17349
Год выхода: 1960
Жанр: Вестерн
Режиссер: Эдвард Л. Кан / Edward L. Cahn

В ролях: Билл Уильямс, Глория Тэлботт, Тед де Корсия, Грант Ричардс, Уолтер Сэнд
X Brands, Уолтер Болдуин, Грэндон Родс, Фрэнк Бэйкер, Джордж Бэрроус

О фильме:
Окружной прокурор пытается обвинить индейского вождя в убийстве индейского агента, но начинает верить, что вождь возможно не виновен, события подкреплены мощными интересами других людей, которые хотят начать войну между индейцами и местными жителями.



Страна: США
Продолжительность: 01:04:14.112
Перевод: Профессиональный (двухголосый закадровый) MGMHD/НТВ+
Файл
Кодек: h.264
Качество: HDTVRip 720p Исходник HDTV 1080i MGMHD
Видео: 1280x720 (16:9), 25.000 fps, AVC, ~3438 Kbps, 0.149 bits/pixel
Звук:
Русский, 48.0 KHz, MP2, 2 ch, 192 Kbps
Английский, 48.0 KHz, AC3, 2 ch, 192 Kbps
Субтитры: нет
Общее
Уникальный идентификатор : 251505013183447598826690992992259540536 (0xBD361A85E1597C589665711C7F520638)
Полное имя : E:FILMSTerritoriya_Oklahomy.1960.HDTVRip720p.mkv
Формат : Matroska
Версия формата : Version 4 / Version 2
Размер файла : 1,72 Гбайт
Продолжительность : 1 ч. 4 м.
Общий поток : 3824 Кбит/сек
Дата кодирования : UTC 2016-03-14 17:57:58
Программа кодирования : mkvmerge v8.9.0 ('Father Daughter') 64bit
Библиотека кодирования : libebml v1.3.3 + libmatroska v1.4.4
Видео
Идентификатор : 1
Формат : AVC
Формат/Информация : Advanced Video Codec
Профиль формата : High@L4.1
Параметр CABAC формата : Да
Параметр ReFrames формата : 9 кадров
Идентификатор кодека : V_MPEG4/ISO/AVC
Продолжительность : 1 ч. 4 м.
Битрейт : 3438 Кбит/сек
Ширина : 1280 пикселей
Высота : 720 пикселей
Соотношение сторон : 16:9
Режим частоты кадров : Постоянный
Частота кадров : 25,000 кадров/сек
Цветовое пространство : YUV
Субдискретизация насыщенности : 4:2:0
Битовая глубина : 8 бит
Тип развёртки : Прогрессивная
Бит/(Пиксели*Кадры) : 0.149
Размер потока : 1,54 Гбайт (90%)
Библиотека кодирования : x264 core 148 r2638 7599210
Настройки программы : cabac=1 / ref=9 / deblock=1:-3:-3 / analyse=0x3:0x133 / me=umh / subme=11 / psy=1 / psy_rd=1.10:0.15 / mixed_ref=1 / me_range=48 / chroma_me=1 / trellis=2 / 8x8dct=1 / cqm=0 / deadzone=21,11 / fast_pskip=0 / chroma_qp_offset=-3 / threads=8 / lookahead_threads=1 / sliced_threads=0 / nr=0 / decimate=0 / interlaced=0 / bluray_compat=0 / constrained_intra=0 / bframes=8 / b_pyramid=2 / b_adapt=2 / b_bias=0 / direct=3 / weightb=1 / open_gop=0 / weightp=2 / keyint=250 / keyint_min=25 / scenecut=40 / intra_refresh=0 / rc_lookahead=60 / rc=2pass / mbtree=0 / bitrate=3438 / ratetol=1.0 / qcomp=0.60 / qpmin=0 / qpmax=69 / qpstep=4 / cplxblur=20.0 / qblur=0.5 / vbv_maxrate=40000 / vbv_bufsize=50000 / nal_hrd=none / filler=0 / ip_ratio=1.40 / pb_ratio=1.30 / aq=1:1.00
Default : Нет
Forced : Нет
Цветовой диапазон : Limited
Основные цвета : BT.709
Характеристики трансфера : BT.709
Коэффициенты матрицы : BT.709
Аудио #1
Идентификатор : 2
Формат : MPEG Audio
Версия формата : Version 1
Профиль формата : Layer 2
Идентификатор кодека : A_MPEG/L2
Идентификатор кодека/Подсказка : MP2
Продолжительность : 1 ч. 4 м.
Вид битрейта : Постоянный
Битрейт : 192 Кбит/сек
Каналы : 2 канала
Частота : 48,0 КГц
Частота кадров : 41,667 кадра/сек (1152 spf)
Метод сжатия : С потерями
Размер потока : 88,2 Мбайт (5%)
Язык : Russian
Default : Да
Forced : Нет
Аудио #2
Идентификатор : 3
Формат : AC-3
Формат/Информация : Audio Coding 3
Расширение режима : CM (complete main)
Параметр Endianness формата : Big
Идентификатор кодека : A_AC3
Продолжительность : 1 ч. 4 м.
Вид битрейта : Постоянный
Битрейт : 192 Кбит/сек
Каналы : 2 канала
Расположение каналов : Front: L R
Частота : 48,0 КГц
Частота кадров : 31,250 кадров/сек (1536 spf)
Метод сжатия : С потерями
Размер потока : 88,2 Мбайт (5%)
Язык : English
Default : Нет
Forced : Нет


Релиз от: Temperest


_________________



реклама партнёра


Вернуться к началу
 Профиль Отправить личное сообщение  
 
   Похожие торренты   Автор   Торрент   Размер 
В этой теме нет новых непрочитанных сообщений. Территория Оклахомы / Oklahoma Territory [Вестерн, 1960] HDTV 1080i, Dvo

salma3

15 | 1

3.2 ГБ

В этой теме нет новых непрочитанных сообщений. В осаде 2: Тёмная Территория / Захват 2: Территория Тьмы / Under Siege 2: Dark Territory [боевик, 1995] HDRip, Mvo

salma3

150 | 3

1.45 ГБ

В этой теме нет новых непрочитанных сообщений. Территория №8 / Territory 8 [фантастика, триллер, драма, 2013] HDRip, Mvo

salma3

360 | 19

1.37 ГБ

В этой теме нет новых непрочитанных сообщений. К северу от Аляски / North to Alaska [Комедия, вестерн, 1960] HDRip-AVC, Mvo

salma3

12 | 4

1.46 ГБ

В этой теме нет новых непрочитанных сообщений. Территория (Александр Мельник) [драма, приключения, 2015] WEB-DL 720p [iTunes]

Dracon

4626 | 66

4.66 ГБ

В этой теме нет новых непрочитанных сообщений. Two Hours Traffic - Territory [2009, Indie-rock, MP3]

PriZraK

0 | 1

68.09 МБ

В этой теме нет новых непрочитанных сообщений. Hessler - Comes With the Territory [2012, Melodic Heavy Metal, Hard-n-Heavy, MP3]

PriZraK

0 | 1

101.48 МБ


Начать новую тему Ответить на тему  [ 1 сообщение ] 




Для Мосгорсуда, Роскомнадзора и рекламодателей:: mosgorsud-torrent[собачка]yandex.ru