Торрент файл
скачать торрент магнет ссылка Добавлен: 15 мар 2016, 22:15
Размер: 1.44 ГБ
Сидеров: 1
Личеров: 0
Статус: (salma3)
Автор

СообщениеДобавлено: 15 мар 2016, 22:15 

Не в сети
Супермодератор
Аватара пользователя
Дата регистрации:
15 фев 2012, 16:44
Возраст: 27
Спасибо: 5135 / 2089
Сообщения: 17405
Страна: США
Жанр: Боевик
Год выпуска: 1987
Продолжительность: 1:29:28

Перевод: Авторский (одноголосый закадровый) А.Кашкин(Первомайский)
Cубтитры: нет
Оригинальная аудиодорожка: английский

Режиссер: Дэвид А. Прайор /David A. Prior

В ролях: Эдд Бернс, Гэйл Фишер, Эди Уильямс, Линда Алдон, Уильям Зипп, Кристин Лунде, Сюзанна Тегманн, Мэрлин Стэффорд, Пол Бруно, Брайан Кларк

Описание: Бывший агент ФБР Джон Микланд сколачивает банду матерых головорезов, творящую невиданные по жестокости преступления.
Для его поимки руководство ФБР разыскивает бывшую напарницу Микланда — агента Рейчел МакКенна, которая формирует из женщин-заключенных спецподразделение, способное выполнить смертельное задание.

Сэмпл: https://www.sendspace.com/file/qe137g

Качество видео: VHSRip
Формат видео: AVI
Видео: XviD MPEG-4 , 640x480 (1.33:1) , 23.976 fps , 1 899 Kbps
Аудио: АC3 , 48 kHz , 192.00 kbps avg , 2/0 (L,R) ch (RUS)
Аудио 2: АC3 , 48 kHz , 192.00 kbps avg , 2/0 (L,R) ch (ENG)
Complete name Истребители мужчин 1987.avi
Format : AVI
Format/Info : Audio Video Interleave
File size : 1.44 GiB
Duration : 1h 29mn
Overall bit rate : 2 297 Kbps
Writing application : VirtualDubMod 1.5.10.3 | http://www.virtualdub-fr.org || (build 2550/release)
Writing library : VirtualDubMod build 2550/release

Video
ID : 0
Format : MPEG-4 Visual
Format profile : Advanced Simple@L5
Format settings, BVOP : 1
Format settings, QPel : No
Format settings, GMC : No warppoints
Format settings, Matrix : Custom
Codec ID : XVID
Codec ID/Hint : XviD
Duration : 1h 29mn
Bit rate : 1 899 Kbps
Width : 640 pixels
Height : 480 pixels
Display aspect ratio : 4:3
Frame rate : 23.976 (24000/1001) fps
Color space : YUV
Chroma subsampling : 4:2:0
Bit depth : 8 bits
Scan type : Progressive
Compression mode : Lossy
Bits/(Pixel*Frame) : 0.258
Stream size : 1.19 GiB (83%)
Writing library : XviD 73

Audio #1
ID : 1
Format : AC-3
Format/Info : Audio Coding 3
Mode extension : CM (complete main)
Format settings, Endianness : Big
Codec ID : 2000
Duration : 1h 29mn
Bit rate mode : Constant
Bit rate : 192 Kbps
Channel(s) : 2 channels
Channel positions : Front: L R
Sampling rate : 48.0 KHz
Frame rate : 31.250 fps (1536 spf)
Compression mode : Lossy
Stream size : 123 MiB (8%)
Alignment : Split accross interleaves
Interleave, duration : 42 ms (1.00 video frame)
Interleave, preload duratio : 500 ms

Audio #2
ID : 2
Format : AC-3
Format/Info : Audio Coding 3
Mode extension : CM (complete main)
Format settings, Endianness : Big
Codec ID : 2000
Duration : 1h 29mn
Bit rate mode : Constant
Bit rate : 192 Kbps
Channel(s) : 2 channels
Channel positions : Front: L R
Sampling rate : 48.0 KHz
Frame rate : 31.250 fps (1536 spf)
Compression mode : Lossy
Stream size : 123 MiB (8%)
Alignment : Split accross interleaves
Interleave, duration : 42 ms (1.00 video frame)
Interleave, preload duratio : 500 ms


_________________



реклама партнёра


Вернуться к началу
 Профиль Отправить личное сообщение  
 
   Похожие торренты   Автор   Торрент   Размер 
В этой теме нет новых непрочитанных сообщений. И затем вы умираете / А затем ты умрешь / And Then You Die [Криминальная драма, 1987] VHSRip. Avo

salma3

2 | 1

1.14 ГБ

В этой теме нет новых непрочитанных сообщений. Истребители. Последний бой [Серия 1-12 из 12] (Зиновий Ройзман) [военный, драма, 2015] WEB-DL 1080p

Dracon

200 | 51

14.55 ГБ

В этой теме нет новых непрочитанных сообщений. Истребители: Последний бой [серии 1-12 из 12] (Зиновий Ройзман) [военный, драма, 2015] HDTVRip

Dracon

9 | 4

7.04 ГБ

В этой теме нет новых непрочитанных сообщений. Истребители. Последний бой [Серия 1-12 из 12] (Зиновий Ройзман) [военный, драма, 2015] WEB-DLRip

Dracon

854 | 279

7.62 ГБ

В этой теме нет новых непрочитанных сообщений. Истребители - 2. Последний бой [02х01-12 из 12] (Зиновий Ройзман) [военный, драма, 2015] WEB-DL 720p

Dracon

930 | 259

8.48 ГБ

В этой теме нет новых непрочитанных сообщений. Истребители [серия 1-12 из 12] (Алексей Мурадов) [Драма, военный, 2013] DVDRip [лицензия]

Dracon

28 | 3

7.99 ГБ

В этой теме нет новых непрочитанных сообщений. Истребители. Последний бой [Серия 1-12 из 12] (Зиновий Ройзман) [военный, драма, 2015] HDTV 720p

Dracon

625 | 249

18.56 ГБ


Начать новую тему Ответить на тему  [ 1 сообщение ] 




Для Мосгорсуда, Роскомнадзора и рекламодателей:: mosgorsud-torrent[собачка]yandex.ru