Торрент файл
скачать торрент магнет ссылка Добавлен: 15 мар 2016, 22:09
Размер: 1.74 ГБ
Сидеров: 8
Личеров: 3
Статус: (salma3)
Автор

СообщениеДобавлено: 15 мар 2016, 22:09 

В сети
Супермодератор
Аватара пользователя
Дата регистрации:
15 фев 2012, 16:44
Возраст: 27
Спасибо: 5139 / 2090
Сообщения: 17443
Перевод: Профессиональный (многоголосый, закадровый), cубтитры: отсутствуют
Формат: HDTVRip-AVC, MKV, H.264, AC3
Страна: Франция, Италия
Режиссер: Жан Жиро
Жанр: комедия
Продолжительность: 01:41:53
Год выпуска: 1965

В ролях: Луи де Фюнес, Мишель Галабрю, Кристиан Марен, Ги Гроссо, Мишель Модо, Алан Скотт, Жан Лефевр, Женевьева Гра, Марино Мазе, Марио Пизу, Альбер Ожье, Жан Дроз, Лерой Хэйнс

Описание:
Дружная бригада французских полицейских отправляется в Нью — Йорк, где им поручено представлять Францию на международном конгрессе полицейских. Крюшо, Мерло, Фугас, Трикар и Берлико во главе с сержантом Жербером пускаются в дальний путь. Как не уронить чести мундира, если вас ждет страна соблазнов, да и по — английски вы не знаете ни слова? К тому же Крюшо с ужасом обнаруживает, что его дочь Николь, вопреки воле отца, зайцем отправляется в Нью — Йорк на поиски мужчины своей жизни. Если это откроется — его карьере конец…



Видео: 1024x432 (2.43:1), 23.976 fps, Н.264 ~2251 kbps avg, 0.208 bit/pixel
Аудио: 48 kHz, АС3, 2 ch, Front: L R ~192.00 kbps avg (Профессиональный многоголосый)

General
Complete name : D:\VIRTUALDISK\1067 - ������� � ���-�����\Zhandarm.v.Nju.Jorke.1965.x264.HDTVRip(AVC).Olegov.mkv
Format : Matroska
File size : 1.74 GiB
Duration : 1h 41mn
Overall bit rate : 2 444 Kbps
Encoded date : UTC 2011-02-22 02:11:32
Writing application : mkvmerge v3.3.0 ('Language') built on Mar 24 2010 14:59:24
Writing library : libebml v0.8.0 + libmatroska v0.9.0

Video
ID : 1
Format : AVC
Format/Info : Advanced Video Codec
Format profile :
Format settings, CABAC : Yes
Format settings, ReFrames : 10 frames
Muxing mode : Container profile=Unknown@4.1
Codec ID : V_MPEG4/ISO/AVC
Duration : 1h 41mn
Bit rate : 2 203 Kbps
Nominal bit rate : 2 251 Kbps
Width : 1 024 pixels
Height : 432 pixels
Display aspect ratio : 2.35:1
Frame rate : 23.976 fps
Resolution : 24 bits
Colorimetry : 4:2:0
Scan type : Progressive
Bits/(Pixel*Frame) : 0.208
Stream size : 1.57 GiB (90%)
Writing library : x264 core 92 r1510 33d382a
Encoding settings : cabac=1 / ref=10 / deblock=1:0:0 / analyse=0x3:0x133 / me=umh / subme=9 / psy=1 / psy_rd=0.80:1.00 / mixed_ref=1 / me_range=32 / chroma_me=0 / trellis=2 / 8x8dct=1 / cqm=0 / deadzone=21,11 / fast_pskip=0 / chroma_qp_offset=1 / threads=3 / sliced_threads=0 / nr=0 / decimate=0 / interlaced=0 / constrained_intra=0 / bframes=16 / b_pyramid=2 / b_adapt=2 / b_bias=0 / direct=3 / wpredb=1 / wpredp=2 / keyint=250 / keyint_min=25 / scenecut=40 / intra_refresh=0 / rc_lookahead=40 / rc=2pass / mbtree=1 / bitrate=2251 / ratetol=1.0 / qcomp=0.60 / qpmin=10 / qpmax=51 / qpstep=4 / cplxblur=20.0 / qblur=0.5 / ip_ratio=1.40 / aq=2:1.00

Audio
ID : 2
Format : AC-3
Format/Info : Audio Coding 3
Codec ID : A_AC3
Duration : 1h 41mn
Bit rate mode : Constant
Bit rate : 192 Kbps
Channel(s) : 2 channels
Channel positions : L R
Sampling rate : 48.0 KHz
Stream size : 140 MiB (8%)




_________________



реклама партнёра


Вернуться к началу
 Профиль Отправить личное сообщение  
 
   Похожие торренты   Автор   Торрент   Размер 
В этой теме нет новых непрочитанных сообщений. Жандарм и жандарметки / Le gendarme et les gendarmettes [комедия, криминал, 1982] HDTVRip-AVC, Mvo

salma3

15 | 3

2.15 ГБ

В этой теме нет новых непрочитанных сообщений. Жандарм и инопланетяне / Le gendarme et les extra-terrestres [комедия, фантастика, 1978] HDTVRip-AVC, Mvo

salma3

5 | 4

1.66 ГБ

В этой теме нет новых непрочитанных сообщений. Жандарм женится / Le gendarme se marie [комедия, 1968] DVDRip-AVC, Mvo

salma3

7 | 5

1.53 ГБ

В этой теме нет новых непрочитанных сообщений. Жандарм на отдыхе / Le gendarme en balade [комедия, 1970] BDRip-AVC, 5Mvo+Avo+Sub

salma3

9 | 4

2.84 ГБ

В этой теме нет новых непрочитанных сообщений. Жандарм из Сен-Тропе / Le gendarme de Saint-Tropez [комедия, 1964] DVDRip-AVC, Mvo

salma3

5 | 4

1.37 ГБ

В этой теме нет новых непрочитанных сообщений. Пять минаретов в Нью-Йорке / Five Minarets in New York [драма, 2010] BDRip, Mvo

salma3

26 | 4

1.46 ГБ

В этой теме нет новых непрочитанных сообщений. Салам, New York / Salam, New York! [Комедия, драма, мелодрама, 2013] WEB-DLRip

Dracon

102 | 5

1.46 ГБ


Начать новую тему Ответить на тему  [ 1 сообщение ] 




Для Мосгорсуда, Роскомнадзора и рекламодателей:: mosgorsud-torrent[собачка]yandex.ru