Торрент файл
скачать торрент магнет ссылка Добавлен: 15 мар 2016, 22:05
Размер: 1.53 ГБ
Сидеров: 7
Личеров: 5
Статус: (salma3)
Автор

СообщениеДобавлено: 15 мар 2016, 22:05 

Не в сети
Супермодератор
Аватара пользователя
Дата регистрации:
15 фев 2012, 16:44
Возраст: 27
Спасибо: 5139 / 2089
Сообщения: 17411
Жандарм женится / Le gendarme se marie

Перевод: Профессиональный (многоголосый, закадровый), cубтитры: отсутствуют
Формат: DVDRip-AVC, MKV, H.264, AC3
Страна: Франция, Италия
Режиссер: Жан Жиро
Жанр: комедия
Продолжительность: 01:28:55
Год выпуска: 1968

В ролях: Луи де Фюнес, Жан Лефевр, Женевьева Гра, Кристиан Марен, Ив Венсан, Ги Гроссо, Мишель Модо, Маурицио Бонулья, Марио Давид, Клод Жансак, Мишель Галабрю, Николь Вервиль

Описание:
Пробил долгожданный «Час Икс». На календаре у старшины жандармов первое июля, а это значит, что во Франции настало время всеобщих отпусков. Толпы обезумевших от жажды развлечений туристов ринулись к морю, и наши старые знакомые — блюстители порядка из курортного Сен-Тропе — должны во что бы то ни стало, любой ценой сдержать бурный натиск отдыхающих. И вот, за отчаянно-быструю езду по горным дорогам Крюшо арестовывает очаровательную Жозефу, которая оказывается вдовой полковника жандармерии.



Видео: 1024x432 (2.43:1), 23.976 fps, Н.264 ~2253 kbps avg, 0.212 bit/pixel
Аудио: 48 kHz, АС3, 2 ch, Front: L R ~192.00 kbps avg

Общее
Полное имя : C:\Users\Admin\Downloads\Zhandarm.zhenitsya.1968.x264.DVDRip(AVC).Olegov.mkv
Формат : Matroska
Версия формата : Version 2
Размер файла : 1,53 Гбайт
Продолжительность : 1 ч. 29 м.
Общий поток : 2445 Кбит/сек
Дата кодирования : UTC 2011-02-23 00:54:33
Программа кодирования : mkvmerge v3.3.0 ('Language') built on Mar 24 2010 14:59:24
Библиотека кодирования : libebml v0.8.0 + libmatroska v0.9.0

Видео
Идентификатор : 1
Формат : AVC
Формат/Информация : Advanced Video Codec
Профиль формата :
Параметр CABAC формата : Да
Параметр ReFrames формата : 10 кадров
Идентификатор кодека : V_MPEG4/ISO/AVC
Продолжительность : 1 ч. 29 м.
Битрейт : 2253 Кбит/сек
Ширина : 1024 пикселя
Высота : 432 пикселя
Соотношение сторон : 2,40:1
Режим частоты кадров : Постоянный
Частота кадров : 23,976 кадра/сек
Цветовое пространство : YUV
Субдискретизация насыщенности : 4:2:0
Битовая глубина : 8 бит
Тип развёртки : Прогрессивная
Бит/(Пиксели*Кадры) : 0.212
Размер потока : 1,38 Гбайт (90%)
Библиотека кодирования : x264 core 92 r1510 33d382a
Настройки программы : cabac=1 / ref=10 / deblock=1:0:0 / analyse=0x3:0x133 / me=umh / subme=9 / psy=1 / psy_rd=0.80:1.00 / mixed_ref=1 / me_range=32 / chroma_me=0 / trellis=2 / 8x8dct=1 / cqm=0 / deadzone=21,11 / fast_pskip=0 / chroma_qp_offset=1 / threads=3 / sliced_threads=0 / nr=0 / decimate=0 / interlaced=0 / constrained_intra=0 / bframes=16 / b_pyramid=2 / b_adapt=2 / b_bias=0 / direct=3 / wpredb=1 / wpredp=2 / keyint=250 / keyint_min=25 / scenecut=40 / intra_refresh=0 / rc_lookahead=40 / rc=2pass / mbtree=1 / bitrate=2253 / ratetol=1.0 / qcomp=0.60 / qpmin=10 / qpmax=51 / qpstep=4 / cplxblur=20.0 / qblur=0.5 / ip_ratio=1.40 / aq=2:1.00
Default : Да
Forced : Нет

Аудио
Идентификатор : 2
Формат : AC-3
Формат/Информация : Audio Coding 3
Расширение режима : CM (complete main)
Параметр Endianness формата : Big
Идентификатор кодека : A_AC3
Продолжительность : 1 ч. 29 м.
Вид битрейта : Постоянный
Битрейт : 192 Кбит/сек
Каналы : 2 канала
Расположение каналов : Front: L R
Частота : 48,0 КГц
Битовая глубина : 16 бит
Метод сжатия : С потерями
Размер потока : 123 Мбайт (8%)
Default : Да
Forced : Нет



_________________



реклама партнёра


Вернуться к началу
 Профиль Отправить личное сообщение  
 
   Похожие торренты   Автор   Торрент   Размер 
В этой теме нет новых непрочитанных сообщений. Жандарм из Сен-Тропе / Le gendarme de Saint-Tropez [комедия, 1964] DVDRip-AVC, Mvo

salma3

5 | 4

1.37 ГБ

В этой теме нет новых непрочитанных сообщений. Жандарм в Нью-Йорке / Le gendarme а New York [комедия, 1965] HDTVRip-AVC, Mvo

salma3

8 | 3

1.74 ГБ

В этой теме нет новых непрочитанных сообщений. Жандарм и жандарметки / Le gendarme et les gendarmettes [комедия, криминал, 1982] HDTVRip-AVC, Mvo

salma3

15 | 3

2.15 ГБ

В этой теме нет новых непрочитанных сообщений. Жандарм на отдыхе / Le gendarme en balade [комедия, 1970] BDRip-AVC, 5Mvo+Avo+Sub

salma3

9 | 4

2.84 ГБ

В этой теме нет новых непрочитанных сообщений. Жандарм и инопланетяне / Le gendarme et les extra-terrestres [комедия, фантастика, 1978] HDTVRip-AVC, Mvo

salma3

5 | 4

1.66 ГБ

В этой теме нет новых непрочитанных сообщений. Жандарм из Сен-Тропе / Les Gendarmes De Saint-Tropez (Антология) [комедия, криминал, 1964-1982] BDRip, Dub+Mvo

salma3

25 | 7

8.46 ГБ

В этой теме нет новых непрочитанных сообщений. Даффи / Duffy [комедия, криминал, 1968] DVDRip-AVC. Mvo

salma3

17 | 3

1.44 ГБ


Начать новую тему Ответить на тему  [ 1 сообщение ] 




Для Мосгорсуда, Роскомнадзора и рекламодателей:: mosgorsud-torrent[собачка]yandex.ru