Торрент файл
скачать торрент магнет ссылка Добавлен: 15 мар 2016, 22:02
Размер: 2.84 ГБ
Сидеров: 9
Личеров: 4
Статус: (salma3)
Автор

СообщениеДобавлено: 15 мар 2016, 22:02 

В сети
Супермодератор
Аватара пользователя
Дата регистрации:
15 фев 2012, 16:44
Возраст: 27
Спасибо: 5130 / 2089
Сообщения: 17350
Жандарм на отдыхе / Le gendarme en balade

Перевод: Профессиональный (многоголосый, закадровый), cубтитры: Русские
Формат: BDRip-AVC, MKV, H.264, AC3
Страна: Франция, Италия
Режиссер: Жан Жиро
Жанр: комедия
Продолжительность: 01:40:27
Год выпуска: 1970

В ролях: Луи де Фюнес, Жан Лефевр, Ги Гроссо, Мишель Модо, Николь Вервиль, Франс Румилли, Ив Венсан,

Описание:
Всему приходит конец. Начальство сочло наших героев слишком старыми и отправило их на заслуженный отдых. Это трагический момент в жизни такого мужественного офицера как сержант Крюшо. Запершись в роскошном замке своей жены, он предается унынию. Приезд бывшего начальника Жербера выводит его из спячки. Они собирают своих подчиненных, надевают любимую жандармскую форму и отправляются навстречу новым подвигам.



Видео: 1280x544 (2.35:1), 24 fps, Н.264 ~2700 kbps avg, 0.162 bit/pixel
Аудио#1: 48 kHz, АС3, 2 ch, Front: L R ~192.00 kbps avg (Многоголосый закадровый, НТВ+)
Аудио#2: 48 kHz, АС3, 2 ch, Front: L R ~192.00 kbps avg (Многоголосый закадровый, SomeWax)
Аудио#3: 48 kHz, АС3, 2 ch, Front: L R ~192.00 kbps avg (Многоголосый закадровый, РенТВ)
Аудио#4: 48 kHz, АС3, 2 ch, Front: L R ~192.00 kbps avg (Многоголосый закадровый, ОРТ)
Аудио#5: 48 kHz, АС3, 2 ch, Front: L R ~192.00 kbps avg (Многоголосый закадровый, Останкино)
Аудио#6: 48 kHz, АС3, 2 ch, Front: L R ~192.00 kbps avg (Авторский, К.Дьяконов)
Аудио#7: 48 kHz, АС3, 2 ch, Front: L R ~192.00 kbps avg (Французский)

General
Complete name : F:\Downloads\Жандарм на отдыхе.mkv
Format : Matroska
Format version : Version 4 / Version 2
File size : 2.84 GiB
Duration : 1h 40mn
Overall bit rate : 4 048 Kbps
Encoded date : UTC 2016-02-15 14:05:54
Writing application : mkvmerge v7.0.0 ('Where We Going') 32bit built on Jun 9 2014 15:08:34
Writing library : libebml v1.3.0 + libmatroska v1.4.1
DURATION : 01:38:13.624000000
NUMBER_OF_FRAMES : 1199
NUMBER_OF_BYTES : 57012
_STATISTICS_WRITING_APP : mkvmerge v7.0.0 ('Where We Going') 32bit built on Jun 9 2014 15:08:34
_STATISTICS_WRITING_DATE_UTC : 2016-02-15 14:05:54
_STATISTICS_TAGS : BPS DURATION NUMBER_OF_FRAMES NUMBER_OF_BYTES

Video
ID : 1
Format : AVC
Format/Info : Advanced Video Codec
Format profile :
Format settings, CABAC : Yes
Format settings, ReFrames : 8 frames
Codec ID : V_MPEG4/ISO/AVC
Duration : 1h 40mn
Bit rate : 2 700 Kbps
Width : 1 280 pixels
Height : 544 pixels
Display aspect ratio : 2.35:1
Frame rate mode : Constant
Frame rate : 24.000 fps
Color space : YUV
Chroma subsampling : 4:2:0
Bit depth : 8 bits
Scan type : Progressive
Bits/(Pixel*Frame) : 0.162
Stream size : 1.84 GiB (65%)
Title : Le gendarme en balade
Writing library : x264 core 125 r2208 d9d2288
Encoding settings : cabac=1 / ref=8 / deblock=1:-1:-1 / analyse=0x3:0x133 / me=umh / subme=9 / psy=1 / psy_rd=1.00:0.10 / mixed_ref=1 / me_range=32 / chroma_me=1 / trellis=2 / 8x8dct=1 / cqm=0 / deadzone=21,11 / fast_pskip=0 / chroma_qp_offset=-3 / threads=6 / lookahead_threads=1 / sliced_threads=0 / nr=0 / decimate=1 / interlaced=0 / bluray_compat=0 / constrained_intra=0 / bframes=3 / b_pyramid=2 / b_adapt=2 / b_bias=0 / direct=3 / weightb=1 / open_gop=0 / weightp=2 / keyint=250 / keyint_min=25 / scenecut=40 / intra_refresh=0 / rc_lookahead=60 / rc=2pass / mbtree=1 / bitrate=2700 / ratetol=1.0 / qcomp=0.60 / qpmin=0 / qpmax=69 / qpstep=4 / cplxblur=20.0 / qblur=0.5 / ip_ratio=1.40 / aq=1:1.00
Language : French
Default : Yes
Forced : No

Audio #1
ID : 2
Format : AC-3
Format/Info : Audio Coding 3
Format profile : Dolby Digital
Mode extension : CM (complete main)
Format settings, Endianness : Big
Codec ID : A_AC3
Duration : 1h 40mn
Bit rate mode : Constant
Bit rate : 192 Kbps
Channel(s) : 2 channels
Channel positions : Front: L R
Sampling rate : 48.0 KHz
Bit depth : 16 bits
Compression mode : Lossy
Stream size : 138 MiB (5%)
Title : Многоголосый закадровый, НТВ+
Language : Russian
Default : Yes
Forced : No

Audio #2
ID : 3
Format : AC-3
Format/Info : Audio Coding 3
Mode extension : CM (complete main)
Format settings, Endianness : Big
Codec ID : A_AC3
Duration : 1h 40mn
Bit rate mode : Constant
Bit rate : 192 Kbps
Channel(s) : 2 channels
Channel positions : Front: L R
Sampling rate : 48.0 KHz
Bit depth : 16 bits
Compression mode : Lossy
Stream size : 138 MiB (5%)
Title : Многоголосый закадровый, SomeWax
Language : Russian
Default : No
Forced : No

Audio #3
ID : 4
Format : AC-3
Format/Info : Audio Coding 3
Format profile : Dolby Digital
Mode extension : CM (complete main)
Format settings, Endianness : Big
Codec ID : A_AC3
Duration : 1h 40mn
Bit rate mode : Constant
Bit rate : 192 Kbps
Channel(s) : 2 channels
Channel positions : Front: L R
Sampling rate : 48.0 KHz
Bit depth : 16 bits
Compression mode : Lossy
Stream size : 138 MiB (5%)
Title : Многоголосый закадровый, РенТВ
Language : Russian
Default : No
Forced : No

Audio #4
ID : 5
Format : AC-3
Format/Info : Audio Coding 3
Format profile : Dolby Digital
Mode extension : CM (complete main)
Format settings, Endianness : Big
Codec ID : A_AC3
Duration : 1h 40mn
Bit rate mode : Constant
Bit rate : 192 Kbps
Channel(s) : 2 channels
Channel positions : Front: L R
Sampling rate : 48.0 KHz
Bit depth : 16 bits
Compression mode : Lossy
Stream size : 138 MiB (5%)
Title : Многоголосый закадровый, ОРТ
Language : Russian
Default : No
Forced : No

Audio #5
ID : 6
Format : AC-3
Format/Info : Audio Coding 3
Format profile : Dolby Digital
Mode extension : CM (complete main)
Format settings, Endianness : Big
Codec ID : A_AC3
Duration : 1h 40mn
Bit rate mode : Constant
Bit rate : 192 Kbps
Channel(s) : 2 channels
Channel positions : Front: L R
Sampling rate : 48.0 KHz
Bit depth : 16 bits
Compression mode : Lossy
Stream size : 138 MiB (5%)
Title : Многоголосый закадровый, Останкино
Language : Russian
Default : No
Forced : No

Audio #6
ID : 7
Format : AC-3
Format/Info : Audio Coding 3
Format profile : Dolby Digital
Mode extension : CM (complete main)
Format settings, Endianness : Big
Codec ID : A_AC3
Duration : 1h 40mn
Bit rate mode : Constant
Bit rate : 192 Kbps
Channel(s) : 2 channels
Channel positions : Front: L R
Sampling rate : 48.0 KHz
Bit depth : 16 bits
Compression mode : Lossy
Stream size : 138 MiB (5%)
Title : Авторский, К.Дьяконов
Language : Russian
Default : No
Forced : No

Audio #7
ID : 8
Format : AC-3
Format/Info : Audio Coding 3
Mode extension : CM (complete main)
Format settings, Endianness : Big
Codec ID : A_AC3
Duration : 1h 40mn
Bit rate mode : Constant
Bit rate : 192 Kbps
Channel(s) : 2 channels
Channel positions : Front: L R
Sampling rate : 48.0 KHz
Bit depth : 16 bits
Compression mode : Lossy
Stream size : 138 MiB (5%)
Title : Оригинал
Language : French
Default : No
Forced : No

Text
ID : 9
Format : UTF-8
Codec ID : S_TEXT/UTF8
Codec ID/Info : UTF-8 Plain Text
Title : Вшитые отключаемые
Language : Russian
Default : No
Forced : No




_________________



реклама партнёра


Вернуться к началу
 Профиль Отправить личное сообщение  
 
   Похожие торренты   Автор   Торрент   Размер 
В этой теме нет новых непрочитанных сообщений. Жандарм женится / Le gendarme se marie [комедия, 1968] DVDRip-AVC, Mvo

salma3

7 | 5

1.53 ГБ

В этой теме нет новых непрочитанных сообщений. Жандарм в Нью-Йорке / Le gendarme а New York [комедия, 1965] HDTVRip-AVC, Mvo

salma3

8 | 3

1.74 ГБ

В этой теме нет новых непрочитанных сообщений. Жандарм и жандарметки / Le gendarme et les gendarmettes [комедия, криминал, 1982] HDTVRip-AVC, Mvo

salma3

15 | 3

2.15 ГБ

В этой теме нет новых непрочитанных сообщений. Жандарм из Сен-Тропе / Le gendarme de Saint-Tropez [комедия, 1964] DVDRip-AVC, Mvo

salma3

5 | 4

1.37 ГБ

В этой теме нет новых непрочитанных сообщений. Жандарм и инопланетяне / Le gendarme et les extra-terrestres [комедия, фантастика, 1978] HDTVRip-AVC, Mvo

salma3

5 | 4

1.66 ГБ

В этой теме нет новых непрочитанных сообщений. Жандарм из Сен-Тропе / Les Gendarmes De Saint-Tropez (Антология) [комедия, криминал, 1964-1982] BDRip, Dub+Mvo

salma3

25 | 7

8.46 ГБ

В этой теме нет новых непрочитанных сообщений. Спецагенты на отдыхе / Mais qui a re-tue Pamela Rose? [комедия, 2012] HDRip, Mvo [НТВ+]

salma3

45 | 3

1.37 ГБ


Начать новую тему Ответить на тему  [ 1 сообщение ] 




Для Мосгорсуда, Роскомнадзора и рекламодателей:: mosgorsud-torrent[собачка]yandex.ru