Торрент файл
скачать торрент магнет ссылка Добавлен: 15 мар 2016, 21:58
Размер: 1.45 ГБ
Сидеров: 9
Личеров: 1
Статус: (salma3)
Автор

СообщениеДобавлено: 15 мар 2016, 21:58 

В сети
Супермодератор
Аватара пользователя
Дата регистрации:
15 фев 2012, 16:44
Возраст: 28
Спасибо: 6574 / 2142
Сообщения: 43790
Перевод: Профессиональный (полное дублирование), cубтитры: отсутствуют
Формат: BDRip, AVI, XviD, AC3
Страна: США
Режиссер: Клинт Иствуд
Жанр: триллер, драма, криминал
Продолжительность: 01:42:04
Год выпуска: 1971

В ролях: Клинт Иствуд, Джессика Уолтер, Донна Миллс, Джон Ларч, Джек Джинг, Ирен Херви, Джеймс МакИчин,

Описание:
Популярному калифорнийскому диск-жокею Дэйву постоянно звонит по телефону сексуальный женский голос и просит передать песню «Сыграй мне по-жалостней». Заинтригованный, он вскоре встречается с фанаткой в его любимом ночном заведении, и у них начинается любовная интрига. Но когда Дэйв решает прекратить роман, Эвелин воспламеняется еще большей страстью, и угроза нависает над жизнью его постоянной подружки.



Видео: 704x384 (1.85:1), 23.976 fps, XviD build 65 ~1833 kbps avg, 0.283 bit/pixel
Аудио: 48 kHz, AC3 Dolby Digital, 2/0 (L,R), ~192.00 kbps avg

Формат : AVI
Формат/Информация : Audio Video Interleave
Размер файла : 1,45 Гбайт
Продолжительность : 1 ч. 42 м.
Общий поток : 2034 Кбит/сек
Название фильма : Сыграй мне перед смертью / Play Misty for Me (1971) BDRip
Режиссёр : kingsize87
Программа кодирования : VirtualDubMod 1.5.10.2 (build 2540/release)
Правообладатель : HQCLUB
Примечание : 11.08.2014

Видео
Идентификатор : 0
Формат : MPEG-4 Visual
Профиль формата : Advanced Simple@L5
Параметр BVOP формата : 1
Параметр QPel формата : Нет
Параметр GMC формата : Без точки перехода
Параметр матрицы формата : Выборочная
Идентификатор кодека : XVID
Идентификатор кодека/Подсказка : XviD
Продолжительность : 1 ч. 42 м.
Битрейт : 1833 Кбит/сек
Ширина : 704 пикселя
Высота : 384 пикселя
Соотношение сторон : 1,85:1
Частота кадров : 23,976 кадра/сек
Цветовое пространство : YUV
Субдискретизация насыщенности : 4:2:0
Битовая глубина : 8 бит
Тип развёртки : Прогрессивная
Метод сжатия : С потерями
Бит/(Пиксели*Кадры) : 0.283
Размер потока : 1,31 Гбайт (90%)
Библиотека кодирования : XviD 65

Аудио
Идентификатор : 1
Формат : AC-3
Формат/Информация : Audio Coding 3
Расширение режима : CM (complete main)
Параметр Endianness формата : Big
Идентификатор кодека : 2000
Продолжительность : 1 ч. 42 м.
Вид битрейта : Постоянный
Битрейт : 192 Кбит/сек
Каналы : 2 канала
Расположение каналов : Front: L R
Частота : 48,0 КГц
Битовая глубина : 16 бит
Метод сжатия : С потерями
Размер потока : 140 Мбайт (9%)
Выравнивание : Разделение по промежуткам
Продолжительность промежутка : 42 мс. (1,00 видеокадр)
Время предзагрузки промежутка : 500 мс.




_________________
Проголосуй за трекер Открытый торрент трекер - RUS-MEDIA.ORG

Проголосуй Открытый торрент трекер - RUS-MEDIA.ORG



реклама партнёра


Вернуться к началу
 Профиль Отправить личное сообщение  
 
   Похожие торренты   Автор   Торрент   Размер 
В этой теме нет новых непрочитанных сообщений. Отмеченный смертью / Помеченный смертью / Нико-3 / Marked for Death [боевик, триллер, драма, 1990] BDRip 720p, Dub

salma3

17 | 4

6.9 ГБ

В этой теме нет новых непрочитанных сообщений. Поцелуй перед смертью / A Kiss Before Dying [триллер, криминал, детектив, 1991] DVDRip, Dvo

salma3

50 | 9

1.46 ГБ

В этой теме нет новых непрочитанных сообщений. Заводной апельсин / A Clockwork Orange [фантастика, драма, криминал, 1971] BDRip 720p, Mvo

salma3

92 | 15

11.17 ГБ

В этой теме нет новых непрочитанных сообщений. Между жизнью и смертью / Sehar [Боевик, драма, криминал, 2005] DVDRip, Mvo

salma3

29 | 15

1.36 ГБ

В этой теме нет новых непрочитанных сообщений. Большой Босс / Tang shan da xiong [боевик, триллер, драма, 1971] BDRip, Avo [Живов]

salma3

9 | 2

1.45 ГБ

В этой теме нет новых непрочитанных сообщений. Ночь темных теней / Night of Dark Shadows [ужасы, триллер, драма, 1971] BDRip, Avo

salma3

28 | 7

2 ГБ

В этой теме нет новых непрочитанных сообщений. Большой босс / Tang shan da xiong [боевик, триллер, драма, криминал, 1971] BDRemux 1080p, 2Mvo+3Avo+Sub

salma3

12 | 4

24.05 ГБ


Начать новую тему Ответить на тему  [ 1 сообщение ] 




Для Мосгорсуда, Роскомнадзора и рекламодателей:: mosgorsud-torrent[собачка]yandex.ru