Торрент файл
скачать торрент магнет ссылка Добавлен: 15 мар 2016, 21:47
Размер: 1.45 ГБ
Сидеров: 0
Личеров: 0
Статус: (salma3)
Автор

СообщениеДобавлено: 15 мар 2016, 21:47 

В сети
Супермодератор
Аватара пользователя
Дата регистрации:
15 фев 2012, 16:44
Возраст: 27
Спасибо: 5148 / 2090
Сообщения: 17529
Год выхода: 2009
Жанр: комедия, мелодрама
Режиссер: Барт Фрейндлих

В ролях: Кэтрин Зета-Джонс, Джастин Барта, Стив Антонуччи, Марк Алан Остин, Пол Басиле, Роберт Бизик, Эндрю Брэдли, Дэниэл Барресс, Меган Бирн, Элана Кадиз

О фильме:
У 25-летнего юноши начинается роман с матерью-одиночкой, живущей по соседству. Основной преградой в их отношениях становится то, что главная героиня существенно старше своего избранника.



Страна: США
Студия: A&F Productions, The Film Department, Process Productions
Продолжительность: 01:34:48
Перевод: Дублированный

Файл
Кодек: h.264
Качество: BDRip-AVC
Видео: 1423 Кбит/с, 1024x436, 23.976 кадр/с
Аудио: Русский, английский (АС3, 6 ch, 384 Кбит/с)
Субтитры: Английские


-----------------------------------------------------------------------------------
x264 [info]: frame I:1301  Avg QP:16.08  size: 51602
x264 [info]: frame P:29558 Avg QP:18.14  size: 15431
x264 [info]: frame B:105432 Avg QP:20.02  size:  4614
-----------------------------------------------------------------------------------

Полное имя                               : The.Rebound.2009.x264.BDRip-AVC.0ptimus.mkv
Формат                                   : Matroska
Версия формата                           : Version 2
Размер файла                             : 1,45 Гбайт
Продолжительность                        : 1 ч. 34 м.
Общий поток                              : 2190 Кбит/сек
Название фильма                          : Нянька по вызову | The Rebound [2009] -=BDRip (AVC) by 0ptimus=-
Дата кодирования                         : UTC 2014-01-23 09:42:14
Программа кодирования                    : mkvmerge v6.7.0 ('Back to the Ground') 32bit built on Jan  8 2014 15:03:17
Библиотека кодирования                   : libebml v1.3.0 + libmatroska v1.4.1

Видео
Идентификатор                            : 1
Формат                                   : AVC
Формат/Информация                        : Advanced Video Codec
Профиль формата                          : High@L4.1
Параметр CABAC формата                   : Да
Параметр ReFrames формата                : 8 кадров
Идентификатор кодека                     : V_MPEG4/ISO/AVC
Продолжительность                        : 1 ч. 34 м.
Битрейт                                  : 1423 Кбит/сек
Ширина                                   : 1024 пикселя
Высота                                   : 436 пикселей
Соотношение сторон                       : 2,35:1
Режим частоты кадров                     : Постоянный
Частота кадров                           : 23,976 кадра/сек
Цветовое пространство                    : YUV
Субдискретизация насыщенности            : 4:2:0
Битовая глубина                          : 8 бит
Тип развёртки                            : Прогрессивная
Бит/(Пиксели*Кадры)                      : 0.133
Размер потока                            : 935 Мбайт (63%)
Заголовок                                : Rip by 0ptimus 03/04/2011
Библиотека кодирования                   : x264 core 92 r1510 33d382a
Настройки программы                      : cabac=1 / ref=8 / deblock=1:-3:-3 / analyse=0x3:0x133 / me=umh / subme=9 / psy=1 / psy_rd=1.00:0.20 / mixed_ref=1 / me_range=48 / chroma_me=1 / trellis=2 / 8x8dct=1 / cqm=0 / deadzone=21,11 / fast_pskip=0 / chroma_qp_offset=2 / threads=3 / sliced_threads=0 / nr=0 / decimate=1 / interlaced=0 / constrained_intra=0 / bframes=8 / b_pyramid=2 / b_adapt=2 / b_bias=0 / direct=3 / wpredb=1 / wpredp=2 / keyint=250 / keyint_min=25 / scenecut=40 / intra_refresh=0 / rc=2pass / mbtree=0 / bitrate=1423 / ratetol=1.0 / qcomp=0.60 / qpmin=10 / qpmax=51 / qpstep=4 / cplxblur=20.0 / qblur=0.5 / ip_ratio=1.40 / pb_ratio=1.30 / aq=1:1.00
Язык                                     : English
Default                                  : Да
Forced                                   : Да

Аудио #1
Идентификатор                            : 2
Формат                                   : AC-3
Формат/Информация                        : Audio Coding 3
Расширение режима                        : CM (complete main)
Параметр Endianness формата              : Big
Идентификатор кодека                     : A_AC3
Продолжительность                        : 1 ч. 34 м.
Вид битрейта                             : Постоянный
Битрейт                                  : 384 Кбит/сек
Каналы                                   : 6 каналов
Расположение каналов                     : Front: L C R, Side: L R, LFE
Частота                                  : 48,0 КГц
Битовая глубина                          : 16 бит
Метод сжатия                             : С потерями
Размер потока                            : 260 Мбайт (18%)
Заголовок                                : Дублированный AC3 5.1 @ 384 kbps
Язык                                     : Russian
Default                                  : Да
Forced                                   : Да

Аудио #2
Идентификатор                            : 3
Формат                                   : AC-3
Формат/Информация                        : Audio Coding 3
Расширение режима                        : CM (complete main)
Параметр Endianness формата              : Big
Идентификатор кодека                     : A_AC3
Продолжительность                        : 1 ч. 34 м.
Вид битрейта                             : Постоянный
Битрейт                                  : 384 Кбит/сек
Каналы                                   : 6 каналов
Расположение каналов                     : Front: L C R, Side: L R, LFE
Частота                                  : 48,0 КГц
Битовая глубина                          : 16 бит
Метод сжатия                             : С потерями
Размер потока                            : 260 Мбайт (18%)
Заголовок                                : AC3 5.1 @ 384 kbps
Язык                                     : English
Default                                  : Нет
Forced                                   : Нет

Текст
Идентификатор                            : 4
Формат                                   : UTF-8
Идентификатор кодека                     : S_TEXT/UTF8
Идентификатор кодека/Информация          : UTF-8 Plain Text
Язык                                     : English
Default                                  : Нет
Forced                                   : Нет

Меню
00:00:00.000                             : en:
00:03:45.058                             : en:
00:05:46.471                             : en:
00:08:12.408                             : en:
00:11:04.997                             : en:
00:12:45.347                             : en:
00:14:50.764                             : en:
00:18:28.065                             : en:
00:22:08.493                             : en:
00:25:29.277                             : en:
00:28:16.569                             : en:
00:32:04.589                             : en:
00:36:05.580                             : en:
00:40:28.342                             : en:
00:42:33.384                             : en:
00:46:00.883                             : en:
00:50:30.736                             : en:
00:55:19.691                             : en:
00:58:33.968                             : en:
01:00:56.402                             : en:
01:03:22.298                             : en:
01:08:43.619                             : en:
01:12:16.457                             : en:
01:17:02.075                             : en:
01:20:20.857                             : en:
01:23:56.573                             : en:
01:26:36.441                             : en:
01:30:42.437                             : en:




Релиз от:


_________________



реклама партнёра


Вернуться к началу
 Профиль Отправить личное сообщение  
 
   Похожие торренты   Автор   Торрент   Размер 
В этой теме нет новых непрочитанных сообщений. Девушка по вызову / The Girlfriend Experience [драма, 2009] BDRip, Dvo

salma3

124 | 10

1.45 ГБ

В этой теме нет новых непрочитанных сообщений. Девочка по вызову / Call Girl [триллер, драма, 2012] BDRip 720p, Dvo

salma3

32 | 2

6.59 ГБ

В этой теме нет новых непрочитанных сообщений. Девочка по вызову / Call Girl [триллер, драма, 2012] BDRip 1080p, Dvo

salma3

10 | 4

19.66 ГБ

В этой теме нет новых непрочитанных сообщений. Муж по вызову (Сергей Крутин) [Комедия, 2015] SATRip

Dracon

46 | 1

1.15 ГБ

В этой теме нет новых непрочитанных сообщений. Муж по вызову (Сергей Крутин) [Комедия, 2015] HDTV 1080i

Dracon

1200 | 132

3.51 ГБ

В этой теме нет новых непрочитанных сообщений. Мужчина по вызову 2 / Deuce Bigalow: European Gigolo [Комедия, 2005] WEB-DL 1080p, Dub+Mvo=Sub

salma3

411 | 56

3.6 ГБ

В этой теме нет новых непрочитанных сообщений. Тайный дневник девушки по вызову / Secret Diary of a Call Girl / 1-4 сезоны 1-32 серии из 32 [драма, мелодрама, 2007-2011] DVDRip, Mvo [МузТВ]

salma3

28 | 15

6.05 ГБ


Начать новую тему Ответить на тему  [ 1 сообщение ] 




Для Мосгорсуда, Роскомнадзора и рекламодателей:: mosgorsud-torrent[собачка]yandex.ru