Торрент файл
скачать торрент магнет ссылка Добавлен: 15 мар 2016, 21:19
Размер: 1.45 ГБ
Сидеров: 2
Личеров: 0
Статус: (salma3)
Автор

СообщениеДобавлено: 15 мар 2016, 21:19 

Не в сети
Супермодератор
Аватара пользователя
Дата регистрации:
15 фев 2012, 16:44
Возраст: 27
Спасибо: 5130 / 2089
Сообщения: 17350
Страна: Великобритания
Жанр: Спортивная комедия
Год выпуска: 1999
Продолжительность: 01:29:19

Перевод: Авторский (одноголосый закадровый) Павел Санаев West Video
Cубтитры: нет
Режиссер: Майкл Дэвис / Mick Davis

В ролях: Макс Бисли, Айла Блэр, Лора Фрейзер, Джеймс Космо, Ричард Э. Грант, Иэн Холм, Дэвид Хейман, Том Сайзмор, Пирс Броснан, Нил Мориссей

Описание: Команды двух пивных баров из Шотландии ведут давнюю борьбу за лидерство, проводя ежегодный футбольный матч. И ни разу парням из бара «Бенни» не удавалось победить этих выскочек из «Бистро». Но в этом году они должны выиграть. Любой ценой!

Доп. информация: Дорожка с П. Санаевым синхронизирована и наложена ale_x2008 при помощи Sony Vegas и VirtualDubMod.
За оцифрованную с VHS дорожку благодарим - Fikaloid

Релиз
Сэмпл: https://yadi.sk/i/HiuUpsbQqCSbZ

Качество видео: SATRip (Paha7-1)
Формат видео: AVI
Видео: XviD build 47, 720x544 (1.32:1), 25.00 fps, 2125 kbps avg, 0.22 bit/pixel
Аудио: AC3 Dolby Digital, 48000Hz, 2/0 (L,R) ch (stereo), 192.00 kbps avg
Матч - The Match [by ale_x2008].avi
Format : AVI
Format/Info : Audio Video Interleave
File size : 1.45 GiB
Duration : 1h 29mn
Overall bit rate : 2 328 Kbps
Movie name : Матч - The Match [by ale_x2008]
Director : by ale_x2008
Writing application : VirtualDubMod 1.5.10.3 (build 2550/release)
Copyright : Edich2
Comment : RuTracker.org

Video
ID : 0
Format : MPEG-4 Visual
Format profile : Advanced Simple@L5
Format settings, BVOP : 1
Format settings, QPel : No
Format settings, GMC : No warppoints
Format settings, Matrix : Default (MPEG)
Codec ID : XVID
Codec ID/Hint : XviD
Duration : 1h 29mn
Bit rate : 2 126 Kbps
Width : 720 pixels
Height : 544 pixels
Display aspect ratio : 4:3
Frame rate : 25.000 fps
Color space : YUV
Chroma subsampling : 4:2:0
Bit depth : 8 bits
Scan type : Progressive
Compression mode : Lossy
Bits/(Pixel*Frame) : 0.217
Stream size : 1.33 GiB (91%)
Writing library : XviD 1.2.0.dev47 (UTC 2006-11-01)

Audio
ID : 1
Format : AC-3
Format/Info : Audio Coding 3
Mode extension : CM (complete main)
Format settings, Endianness : Big
Codec ID : 2000
Duration : 1h 29mn
Bit rate mode : Constant
Bit rate : 192 Kbps
Channel(s) : 2 channels
Channel positions : Front: L R
Sampling rate : 48.0 KHz
Frame rate : 31.250 fps (1536 spf)
Compression mode : Lossy
Stream size : 123 MiB (8%)
Alignment : Split accross interleaves
Interleave, duration : 40 ms (1.00 video frame)
Interleave, preload duratio : 500 ms




_________________



реклама партнёра


Вернуться к началу
 Профиль Отправить личное сообщение  
 
   Похожие торренты   Автор   Торрент   Размер 
В этой теме нет новых непрочитанных сообщений. Большой матч / Big Match (Хо Чхве) [Боевик, триллер, комедия, 2014] HDRip [GREEN TEA]

Dracon

116 | 5

1.46 ГБ

В этой теме нет новых непрочитанных сообщений. XXXI Летние Олимпийские Игры. Рио-де-Жанейро (Бразилия). Все на Матч! Все эфиры за время олимпиады [Матч ТВ] [02.08-22.08] (2016) IPTVRip

salma3

0 | 2

25.09 ГБ

В этой теме нет новых непрочитанных сообщений. XXXI Летние Олимпийские Игры. Рио-де-Жанейро (Бразилия). Все на Матч! Все эфиры за время олимпиады [Матч ТВ] [02.08-22.08] (2016) IPTVRip-AVC

salma3

0 | 2

25.04 ГБ

В этой теме нет новых непрочитанных сообщений. Идеальный выбор / The Perfect Match [мелодрама, комедия, 2016] HDRip, Mvo

salma3

32 | 4

1.46 ГБ

В этой теме нет новых непрочитанных сообщений. Забойный реванш / Grudge Match [комедия, спорт, 2013] WEBRip [ENG]

Dracon

173 | 40

1.46 ГБ

В этой теме нет новых непрочитанных сообщений. Забойный реванш / Grudge Match [комедия, спорт, 2013] DVD5, Dub+Sub

Dracon

19 | 2

4.37 ГБ

В этой теме нет новых непрочитанных сообщений. Забойный реванш / Grudge Match [комедия, спорт, 2013] BDRemux, Dub+Sub [iTunes]

Dracon

21 | 2

23.79 ГБ


Начать новую тему Ответить на тему  [ 1 сообщение ] 




Для Мосгорсуда, Роскомнадзора и рекламодателей:: mosgorsud-torrent[собачка]yandex.ru