Торрент файл
скачать торрент магнет ссылка Добавлен: 15 мар 2016, 13:12
Размер: 1.48 ГБ
Сидеров: 1
Личеров: 0
Статус: (salma3)
Автор

СообщениеДобавлено: 15 мар 2016, 13:12 

Не в сети
Супермодератор
Аватара пользователя
Дата регистрации:
15 фев 2012, 16:44
Возраст: 27
Спасибо: 5130 / 2089
Сообщения: 17350
Страна: США
Жанр: фантастика, боевик
Год выпуска: 1998
Продолжительность: 01:26:49

Перевод: Профессиональный (многоголосый закадровый)
Режиссер: Джим Уайнорски / Jim Wynorski

В ролях: Кэрол Олт /Carol Alt/, Джон Лафлин /John Laughlin/, Зэк Гэллигэн /Zach Galligan/, Рик Хилл /Rick Hill/, Кул Моу Ди /Kool Moe Dee/, Кори Фелдман /Corey Feldman/

Описание: Он — результат секретного проекта министерства обороны. Он — боевой киборг. Он выполняет программу, заложенную в его мозг. Выполняет пунктуально, не раздумывая, не испытывая ни страха за свою жизнь, ни жалости к чужой жизни. Он будет идеальным солдатом,… если не забыть включить главную кнопку. Но если ее не включить… Кто знает, не повернет ли эта «машина для убийства» свое оружие против своих создателей…

Доп. информация: За предоставленную дорожку MVO (собственная запись в далеком дорутрекерном периоде) спасибо SuperDVD01

Сэмпл: https://yadi.sk/i/JqsE5dkGnkENq

Качество видео: DVDRip
Формат видео: AVI

Видео: 640x480 (1.33:1), 23.976 fps, XviD build 55 ~1863 kbps avg, 0.25 bit/pixel
Аудио: 48 kHz, AC3 Dolby Digital, 2 ch, ~192.00 kbps avg
Аудио 2: 48 kHz, AC3 Dolby Digital, 3/2 (L,C,R,l,r) + LFE ch, ~384 kbps Eng
Штурмовик - Storm Trooper [by Edich2].avi
Format : AVI
Format/Info : Audio Video Interleave
File size : 1.48 GiB
Duration : 1h 26mn
Overall bit rate : 2 446 Kbps
Movie name : Штурмовик - Storm Trooper [by Edich2]
Director : by Edich2
Writing application : Nandub v1.0rc2
Comment : RuTracker.org

Video
ID : 0
Format : MPEG-4 Visual
Format profile : Advanced Simple@L5
Format settings, BVOP : 1
Format settings, QPel : No
Format settings, GMC : No warppoints
Format settings, Matrix : Custom
Codec ID : XVID
Codec ID/Hint : XviD
Duration : 1h 26mn
Bit rate : 1 864 Kbps
Width : 640 pixels
Height : 480 pixels
Display aspect ratio : 4:3
Frame rate : 23.976 (23976/1000) fps
Color space : YUV
Chroma subsampling : 4:2:0
Bit depth : 8 bits
Scan type : Progressive
Compression mode : Lossy
Bits/(Pixel*Frame) : 0.253
Stream size : 1.13 GiB (76%)
Writing library : XviD 1.3.0.dev55

Audio #1
ID : 1
Format : AC-3
Format/Info : Audio Coding 3
Mode extension : CM (complete main)
Format settings, Endianness : Big
Codec ID : 2000
Duration : 1h 22mn
Bit rate mode : Constant
Bit rate : 192 Kbps
Channel(s) : 2 channels
Channel positions : Front: L R
Sampling rate : 48.0 KHz
Frame rate : 31.250 fps (1536 spf)
Compression mode : Lossy
Delay relative to video : 2s 500ms
Stream size : 114 MiB (7%)
Alignment : Split accross interleaves
Interleave, duration : 44 ms (1.05 video frame)
Interleave, preload duratio : 500 ms

Audio #2
ID : 2
Format : AC-3
Format/Info : Audio Coding 3
Mode extension : CM (complete main)
Format settings, Endianness : Big
Codec ID : 2000
Duration : 1h 26mn
Bit rate mode : Constant
Bit rate : 384 Kbps
Channel(s) : 6 channels
Channel positions : Front: L C R, Side: L R, LFE
Sampling rate : 48.0 KHz
Frame rate : 31.250 fps (1536 spf)
Compression mode : Lossy
Stream size : 238 MiB (16%)
Alignment : Split accross interleaves
Interleave, duration : 42 ms (1.00 video frame)
Interleave, preload duratio : 500 ms







Релиз


_________________



реклама партнёра


Вернуться к началу
 Профиль Отправить личное сообщение  
 
   Похожие торренты   Автор   Торрент   Размер 
В этой теме нет новых непрочитанных сообщений. Штурмовик / Storm Trooper [фантастика, боевик, драма, 1998] DVDRip, Mvo

salma3

43 | 11

1.25 ГБ

В этой теме нет новых непрочитанных сообщений. Навстречу шторму / Into the Storm [фантастика, боевик, приключения, 2014] Blu-Ray, Dub+Sub [Лицензия]

Dracon

2 | 2

20.71 ГБ

В этой теме нет новых непрочитанных сообщений. Навстречу шторму / Into the Storm [Фантастика, боевик, приключения, 2014] BDRip-AVC, Dub [Лицензия]

salma3

270 | 8

1.46 ГБ

В этой теме нет новых непрочитанных сообщений. Навстречу шторму / Into the Storm [фантастика, боевик, приключения, 2014] HDRip, Dub [iTunes]

Dracon

1604 | 13

1.37 ГБ

В этой теме нет новых непрочитанных сообщений. Навстречу шторму / Into the Storm [фантастика, боевик, приключения, 2014] WEB-DL 1080p, Dub [iTunes]

Dracon

917 | 17

3.63 ГБ

В этой теме нет новых непрочитанных сообщений. Навстречу шторму / Into the Storm [фантастика, боевик, приключения, 2014] WEB-DLRip, Dub [iTunes]

Dracon

18 | 2

1.37 ГБ

В этой теме нет новых непрочитанных сообщений. Навстречу шторму / Into the Storm [фантастика, боевик, приключения, 2014] HDRip, Dub [Лицензия R5]

Dracon

30 | 2

2.06 ГБ


Начать новую тему Ответить на тему  [ 1 сообщение ] 




Для Мосгорсуда, Роскомнадзора и рекламодателей:: mosgorsud-torrent[собачка]yandex.ru