Торрент файл
скачать торрент магнет ссылка Добавлен: 15 мар 2016, 13:09
Размер: 1.39 ГБ
Сидеров: 2
Личеров: 1
Статус: (salma3)
Автор

СообщениеДобавлено: 15 мар 2016, 13:09 

Не в сети
Супермодератор
Аватара пользователя
Дата регистрации:
15 фев 2012, 16:44
Возраст: 27
Спасибо: 5858 / 2114
Сообщения: 27095
Страна: Канада, США
Жанр: Фантастический триллер
Год выпуска: 1993
Продолжительность: 01:35:16

Перевод: Профессиональный (двухголосый закадровый) Екатеринбург Арт - (переведен и озвучен на студии «Стар Трек» по заказу фирмы «ВДВ»)
Режиссер: Пол Донован / Paul Donovan

В ролях: Ричард Греко, Натали Редфорд, Мэриам д’Або, Серж Уд, Шон Орр, Дэвид МакЛеод, Бен Рэтнер, Кристин Липпа, Бренда Кричлоу, Корделл Винн

Описание: Мистическая фантастика о тонкой грани, отделяющей человека от животного, и о том, что происходит, если эту грань преодолеть. Спасая жизнь своего возлюбленнго, Тома, умирающего от неизлечимой болезни, доктор Джеки Эддингтон вводит в его мозг ДНК кошки. Попервости результаты — просто замечательны: Том словно рождается заново. Все чувства его обостряются, появляется невероятная подвижность, огромная физическая сила и мощный животный магнетизм. Но постепенно начинают сбываться худшие опасения Джеки. Сохранив жизнь, Том потерял человеческую душу. Самые близкие люди становятся для него объектами смертельной игры в кошки — мышки, а он — все больше похож на хищника.

Доп. информация: Звуковая дорожка с DVO ремастерирована, синхронизирована и наложена ale_x2008 при помощи Adobe Audition, iZotope RX2, Sony Vegas и VirtualDubMod.
За оцифрованную с VHS дорожку благодарим - d_rocker

Релиз

Сэмпл: https://yadi.sk/i/dTcPBlCapqQn9

Качество видео: TVRip
Формат видео: AVI
Видео: XviD build 46, 640x480 (1.33:1), 23.976 fps, 1884 kbps avg avg, 0.26 bit/pixel
Аудио: AC3 Dolby Digital, 48000 Hz, 2/0 (L,R) ch (mono), 192.00 kbps avg
Опасный эксперимент - Tomcat - Dangerous Desires [by ale_x2008].avi
Format : AVI
Format/Info : Audio Video Interleave
File size : 1.39 GiB
Duration : 1h 35mn
Overall bit rate : 2 087 Kbps
Movie name : Опасный эксперимент - Tomcat - Dangerous Desires [by ale_x2008]
Director : by ale_x2008
Writing application : VirtualDubMod 1.5.10.3 (build 2550/release)
Copyright : Edich2
Comment : RuTracker.org

Video
ID : 0
Format : MPEG-4 Visual
Format profile : Advanced Simple@L5
Format settings, BVOP : 2
Format settings, QPel : No
Format settings, GMC : No warppoints
Format settings, Matrix : Default (H.263)
Codec ID : XVID
Codec ID/Hint : XviD
Duration : 1h 35mn
Bit rate : 1 885 Kbps
Width : 640 pixels
Height : 480 pixels
Display aspect ratio : 4:3
Frame rate : 23.976 (23976/1000) fps
Color space : YUV
Chroma subsampling : 4:2:0
Bit depth : 8 bits
Scan type : Progressive
Compression mode : Lossy
Bits/(Pixel*Frame) : 0.256
Stream size : 1.25 GiB (90%)
Writing library : XviD 1.1.2 (UTC 2006-11-01)

Audio
ID : 1
Format : AC-3
Format/Info : Audio Coding 3
Mode extension : CM (complete main)
Format settings, Endianness : Big
Codec ID : 2000
Duration : 1h 35mn
Bit rate mode : Constant
Bit rate : 192 Kbps
Channel(s) : 2 channels
Channel positions : Front: L R
Sampling rate : 48.0 KHz
Frame rate : 31.250 fps (1536 spf)
Compression mode : Lossy
Stream size : 131 MiB (9%)
Alignment : Split accross interleaves
Interleave, duration : 42 ms (1.00 video frame)
Interleave, preload duratio : 500 ms








_________________
Проголосуй за трекер Открытый торрент трекер - RUS-MEDIA.ORG




реклама партнёра


Вернуться к началу
 Профиль Отправить личное сообщение  
 
   Похожие торренты   Автор   Торрент   Размер 
В этой теме нет новых непрочитанных сообщений. Опасные игры / Snake Eyes / Dangerous Game [драма, 1993] BDRip 720p, Dvo

salma3

13 | 9

9.04 ГБ

В этой теме нет новых непрочитанных сообщений. Опасные умы / Dangerous Minds [Драма, криминал, триллер, 1995] WEB-DLRip-AVC, Mvo+Avo

salma3

16 | 2

2.17 ГБ

В этой теме нет новых непрочитанных сообщений. Желания плоти / Carnal Desires [драма, эротика, 2002] DVDRip, Mvo

salma3

39 | 8

1.46 ГБ

В этой теме нет новых непрочитанных сообщений. Желания богатой шлюшки / Lilly Ford (Rich Girl Desires) (2017) SiteRip

salma3

0 | 0

282.33 МБ

В этой теме нет новых непрочитанных сообщений. Опасные связи / Dangerous Liaisons [драма, мелодрама, 1988] BDRip 720p, Dub+Avo+Sub

salma3

33 | 6

7.86 ГБ

В этой теме нет новых непрочитанных сообщений. Опасные связи / Dangerous Liaisons [драма, мелодрама, 1988] BDRip 1080p, Dub+Avo+Sub

salma3

14 | 8

18.7 ГБ

В этой теме нет новых непрочитанных сообщений. The Sexual Desires Of Valentina Nappi / Сексуальные Желания Valentina Nappi (New Sensations) [2017 г., Big Boobs, Brunettes, Compilation, Star showcase, DVDRip]

salma3

0 | 0

1.72 ГБ


Начать новую тему Ответить на тему  [ 1 сообщение ] 




Для Мосгорсуда, Роскомнадзора и рекламодателей:: mosgorsud-torrent[собачка]yandex.ru