Торрент файл
скачать торрент магнет ссылка Добавлен: 15 мар 2016, 13:07
Размер: 1.45 ГБ
Сидеров: 1
Личеров: 1
Статус: (salma3)
Автор

СообщениеДобавлено: 15 мар 2016, 13:07 

В сети
Супермодератор
Аватара пользователя
Дата регистрации:
15 фев 2012, 16:44
Возраст: 27
Спасибо: 5143 / 2090
Сообщения: 17499
Страна: Великобритания
Жанр: Фантастика , ужасы
Год выпуска: 1997
Продолжительность: 1:33:48

Перевод: Авторский (одноголосый закадровый) С.Кузнецов
Режиссер: Пол Мэтьюз / Paul Matthews

В ролях: Тодд Дженсен Саманта Янус Оливер Тобиас Кадамба Симмонс Найджел Харрисон Клифтон Ллойд Брайан Мелани Уолтерс Кэти Лоуренс Ричард Харингтон Роберт Гвин Дэвин

Описание: Генозавр прилетает на метеорите с другой планеты, чтобы создать себе подобных. Он поселяется в старинных пещерах под землей. Учитель колледжа и одна из студенток решаются спуститься туда и уничтожить пришельца. На помощь к ним спешит специальный отряд полиции во главе с лейтенантом Муром.

Доп. информация: За звуковую дорожку спасибо Glowamy

Сэмпл: https://www.sendspace.com/file/pv57vf

Качество видео: DVDRip
Формат видео: AVI
Видео: XviD , 720x448 (1.61:1) ,23.976 fps , 2 016 Kbps
Аудио: AC3 , 48 kHz , 192.00 kbps avg , 2/0 (L,R) ch
Complete name Генозавр 2 1997.avi
Format : AVI
Format/Info : Audio Video Interleave
File size : 1.45 GiB
Duration : 1h 33mn
Overall bit rate : 2 217 Kbps
Writing application : VirtualDubMod 1.5.10.3 | http://www.virtualdub-fr.org || (build 2550/release)
Writing library : VirtualDub build 35491/release

Video
ID : 0
Format : MPEG-4 Visual
Format profile : Advanced Simple@L5
Format settings, BVOP : 1
Format settings, QPel : No
Format settings, GMC : No warppoints
Format settings, Matrix : Custom
Codec ID : XVID
Codec ID/Hint : XviD
Duration : 1h 33mn
Bit rate : 2 016 Kbps
Width : 720 pixels
Height : 448 pixels
Display aspect ratio : 16:10
Frame rate : 23.976 (23976/1000) fps
Color space : YUV
Chroma subsampling : 4:2:0
Bit depth : 8 bits
Scan type : Progressive
Compression mode : Lossy
Bits/(Pixel*Frame) : 0.261
Stream size : 1.32 GiB (91%)
Writing library : XviD 73

Audio
ID : 1
Format : AC-3
Format/Info : Audio Coding 3
Mode extension : CM (complete main)
Format settings, Endianness : Big
Codec ID : 2000
Duration : 1h 33mn
Bit rate mode : Constant
Bit rate : 192 Kbps
Channel(s) : 2 channels
Channel positions : Front: L R
Sampling rate : 48.0 KHz
Frame rate : 31.250 fps (1536 spf)
Compression mode : Lossy
Stream size : 129 MiB (9%)
Alignment : Aligned on interleaves
Interleave, duration : 42 ms (1.00 video frame)
Interleave, preload duratio : 512 ms


_________________



реклама партнёра


Вернуться к началу
 Профиль Отправить личное сообщение  
 
   Похожие торренты   Автор   Торрент   Размер 
В этой теме нет новых непрочитанных сообщений. Размножители / Breeders [ужасы, фантастика, 1986] HDTVRip, Dvo [НТВ+]

salma3

74 | 2

1.08 ГБ

В этой теме нет новых непрочитанных сообщений. Крысы / Смертельные глаза / Deadly Eyes [ужасы, фантастика, 1982] BDRemux 1080p, 4Avo+Sub

salma3

5 | 3

22.21 ГБ

В этой теме нет новых непрочитанных сообщений. Безграничный Бэтмен: Животные инстинкты / Batman Unlimited: Animal Instincts [мультфильм, боевик, приключения, 2015] HDRip, Mvo

salma3

310 | 19

1.37 ГБ

В этой теме нет новых непрочитанных сообщений. Смертельные соперники / Deadly Rivals [боевик, 1993] DVDRip, Dvo

salma3

2 | 8

1.46 ГБ

В этой теме нет новых непрочитанных сообщений. Смертельные соперники / Deadly Rivals [боевик, 1993] DVDRip, Dvo

salma3

8 | 6

744 МБ

В этой теме нет новых непрочитанных сообщений. Смертельные видения / Deadly Visions [Фэнтези, триллер, 2004] DVDRip, Dvo

salma3

15 | 3

1.37 ГБ

В этой теме нет новых непрочитанных сообщений. Смертельные соперники / Deadly Rivals [боевик, 1993] DVDRip, Avo [Гаврилов]

salma3

92 | 7

1.46 ГБ


Начать новую тему Ответить на тему  [ 1 сообщение ] 




Для Мосгорсуда, Роскомнадзора и рекламодателей:: mosgorsud-torrent[собачка]yandex.ru