Торрент файл
скачать торрент магнет ссылка Добавлен: 15 мар 2016, 12:57
Размер: 1.61 ГБ
Сидеров: 5
Личеров: 1
Статус: (salma3)
Автор

СообщениеДобавлено: 15 мар 2016, 12:57 

Не в сети
Супермодератор
Аватара пользователя
Дата регистрации:
15 фев 2012, 16:44
Возраст: 29
Спасибо: 7328 / 2147
Сообщения: 73609
Страна: США
Жанр: Ужасы, триллер
Год выпуска: 2014
Продолжительность: 01:15:32

Перевод: Одноголосый закадровый datynet; перевод: Куценко
Режиссер: Джош Хэсти / Josh Hasty

В ролях: Фрэнк Дж. Аард, Брэд Бэйкер, Кэти Берден, Мэрайя Браун, Кенни Кэйпертон, Этан Данн

Описание: Хэллоуин, 1989 год. Студентка Джеки хочет спокойно провести день рождения. У ее подруги Эмбер другие соображения на этот счет. Она убеждает Джеки прийти на ежегодную вечеринку на территории кампуса. И все бы хорошо, но вот только Джеки в этот вечер попадает под действие странного заклинания…

Сэмпл: http://sendfile.su/1213659

Качество видео: DVDRip-AVC
Формат видео: MKV
Видео: 1280x720, (16:9), 23.976fps, MPEG4 Video (H264) ~2935 Kbps, 0.133 bit/pixel
Аудио: 48 KHz, MPEG Layer 3, 2 channels, stereo 192kbps
General
Unique ID : 205170497644771719125740419941717445014 (0x9A5A6687F27BCAE0B7BB45965CE30996)
Complete name : E:\Honeyspider.2014.mkv
Format : Matroska
Format version : Version 4 / Version 2
File size : 1.61 GiB
Duration : 1h 15mn
Overall bit rate : 3 056 Kbps
Encoded date : UTC 2015-10-31 06:16:29
Writing application : mkvmerge v8.6.1 ('Flying') 64bit

Video
ID : 1
Format : AVC
Format/Info : Advanced Video Codec
Format profile : Main@L3.1
Format settings, CABAC : Yes
Format settings, ReFrames : 1 frame
Codec ID : V_MPEG4/ISO/AVC
Duration : 1h 15mn
Bit rate : 2 935 Kbps
Width : 1 280 pixels
Height : 720 pixels
Display aspect ratio : 16:9
Frame rate mode : Constant
Frame rate : 23.976 fps
Color space : YUV
Chroma subsampling : 4:2:0
Bit depth : 8 bits
Scan type : Progressive
Bits/(Pixel*Frame) : 0.133
Stream size : 1.48 GiB (92%)

Audio
ID : 2
Format : MPEG Audio
Format version : Version 1
Format profile : Layer 3
Codec ID : A_MPEG/L3
Codec ID/Hint : MP3
Duration : 1h 15mn
Bit rate mode : Constant
Bit rate : 192 Kbps
Channel(s) : 2 channels
Sampling rate : 48.0 KHz
Compression mode : Lossy
Stream size : 104 MiB (6%)
Default : Yes
Forced : No










_________________
Проголосуй за трекер Открытый торрент трекер - RUS-MEDIA.ORG

Проголосуй Открытый торрент трекер - RUS-MEDIA.ORG


Вернуться к началу
 Профиль Отправить личное сообщение  
 
   Похожие торренты   Автор   Торрент   Размер 
В этой теме нет новых непрочитанных сообщений. Медовый месяц / Honeymoon [ужасы, триллер, 2014] BDRip 720p, Avo

salma3

14 | 4

7.63 ГБ

В этой теме нет новых непрочитанных сообщений. Медовый месяц / Honeymoon [ужасы, 2014] HDRip, Avo

salma3

0 | 0

1.46 ГБ

В этой теме нет новых непрочитанных сообщений. Медовый месяц с призраками / Haunted Honeymoon [Комедия, ужасы, 1986] BDRemux 1080p, Mvo+Dvo+Sub

salma3

8 | 3

16.73 ГБ

В этой теме нет новых непрочитанных сообщений. Медовый месяц с призраками / Haunted Honeymoon [Комедия, ужасы, мелодрама, 1986] BDRip, Mvo

salma3

42 | 5

1.46 ГБ

В этой теме нет новых непрочитанных сообщений. Путешествие в медовый месяц / Honeymoon Travels Pvt. Ltd. [драма, мелодрама, комедия, 2007] DVDRip, Mvo [Red Media]

salma3

31 | 5

1.46 ГБ

В этой теме нет новых непрочитанных сообщений. Я, мой кореш и медовый месяц / Buddymoon [комедия, 2016] WEB-DLRip, Mvo [Line]

salma3

222 | 219

1.37 ГБ

В этой теме нет новых непрочитанных сообщений. Медовый месяц Камиллы / Camille [Комедия, мелодрама, драма, 2007] BDRip 1080p, Dub

salma3

0 | 0

7.22 ГБ


Начать новую тему Ответить на тему  [ 1 сообщение ] 




Для Мосгорсуда, Роскомнадзора и рекламодателей:: mosgorsud-torrent[собачка]yandex.ru
cron