Торрент файл
скачать торрент магнет ссылка Добавлен: 15 мар 2016, 12:32
Размер: 1.46 ГБ
Сидеров: 105
Личеров: 27
Статус: (salma3)
Автор

СообщениеДобавлено: 15 мар 2016, 12:32 

Не в сети
Супермодератор
Аватара пользователя
Дата регистрации:
15 фев 2012, 16:44
Возраст: 27
Спасибо: 5143 / 2090
Сообщения: 17475
Супершпион / Gun Shy

Год выхода: 2000
Жанр: мелодрама, комедия, криминал
Режиссер: Эрик Блэкни / Eric Blakeney

В ролях: Лиам Нисон, Оливер Плэтт, Хосе Суньига, Майкл ДеЛоренцо, Эндрю Лоэр, Ричард Шифф, Пол Бен-Виктор, Грегг Дэниэл, Бен Вебер, Сандра Буллок

О фильме:
Легендарного полицейского суперагента Чарли Мэйо неожиданно подвело здоровье. Несмотря на несчетное количество проведенных им опаснейших операций, последняя из них его доконала: нюх на опасность, стальные нервы и железный желудок в конце концов отказались ему подчиняться. Нервный срыв и панический ужас перед мафиози Фульвио Несстра, которого Чарли должен арестовать, заставили его всерьез призадуматься о смене профессии. Поэтому прямиком из лазарета бывший герой направился к психиатору. И - о, чудо! Групповая терапия и в особенности медсестра Джуди оказали ему необходимую помощь.



Страна: США
Продолжительность: 01:41:32
Перевод: Профессиональный (двухголосый закадровый)

Файл
Качество: WEB-DLRip
Формат файла: AVI
Видео кодек: XviD
Аудио кодек: AC3
Видео: 704x384, 23.976 fps, XviD build 73 ~1859 kbps
Звук: 48 kHz, AC3 Dolby Digital, 2/0 (L,R) ch, ~192 kbps


Общее
Полное имя : Gun.Shy.2000.WEB-DLRip.avi
Формат : AVI
Формат/Информация : Audio Video Interleave
Размер файла : 1,46 Гбайт
Продолжительность : 1 ч. 41 м.
Общий поток : 2060 Кбит/сек
Программа кодирования : VirtualDubMod 1.5.10.3 | www.virtualdub-fr.org || (build 2550/release)
Библиотека кодирования : VirtualDubMod build 2550/release
Видео
Идентификатор : 0
Формат : MPEG-4 Visual
Профиль формата : Advanced Simple@L5
Параметр BVOP формата : 1
Параметр QPel формата : Нет
Параметр GMC формата : Без точки перехода
Параметр матрицы формата : Выборочная
Идентификатор кодека : XVID
Идентификатор кодека/Подсказка : XviD
Продолжительность : 1 ч. 41 м.
Битрейт : 1859 Кбит/сек
Ширина : 704 пикс.
Высота : 384 пикс.
Соотношение сторон : 16:9
Частота кадров : 23,976 кадр/сек
Цветовое пространство : YUV
Подвыборка цветности : 4:2:0
Битовая глубина : 8 бит
Тип развёртки : Прогрессивная
Метод сжатия : С потерями
Бит/(Пиксели*Кадры) : 0.287
Размер потока : 1,32 Гбайт (90%)
Библиотека кодирования : XviD 73
Аудио
Идентификатор : 1
Формат : AC-3
Формат/Информация : Audio Coding 3
Расширение режима : CM (complete main)
Идентификатор кодека : 2000
Продолжительность : 1 ч. 41 м.
Вид битрейта : Постоянный
Битрейт : 192 Кбит/сек
Канал(ы) : 2 канала(ов)
Расположение каналов : Front: L R
Частота : 48,0 КГц
Битовая глубина : 16 бит
Метод сжатия : С потерями
Задержка видео : 1 с. 0 мс.
Размер потока : 139 Мбайт (9%)
Выравнивание : Разделение по промежуткам
Продолжительность промежутка : 42 мс. (1,00 видеокадр)
Время предзагрузки промежутка : 500 ms

Релиз от: Leon-masl


_________________



реклама партнёра


Вернуться к началу
 Профиль Отправить личное сообщение  
 
   Похожие торренты   Автор   Торрент   Размер 
В этой теме нет новых непрочитанных сообщений. На живца / Bait [Боевик, криминал, комедия, 2000] WEB-DLRip, Avo

salma3

20 | 4

1.46 ГБ

В этой теме нет новых непрочитанных сообщений. Как бы не влюбиться / Kahin Pyaar Na Ho Jaaye [Мелодрама, комедия, 2000] WEB-DLRip, Mvo

salma3

6 | 1

1.46 ГБ

В этой теме нет новых непрочитанных сообщений. Трикси / Trixie [мелодрама, комедия, криминал, детектив, 2000] DVDRip, Dvo

salma3

9 | 2

1.14 ГБ

В этой теме нет новых непрочитанных сообщений. Братья Блюз 2000 / Blues Brothers 2000 [боевик, комедия, криминал, музыка, 1998] Blu-ray 1080p, Mvo+Sub

salma3

11 | 7

35.86 ГБ

В этой теме нет новых непрочитанных сообщений. Бешеный пес и Глори / Mad Dog and Glory [драма, мелодрама, комедия, криминал, 1993] WEB-DLRip, Μvo+Avo

salma3

16 | 3

1.46 ГБ

В этой теме нет новых непрочитанных сообщений. Кости / Bones / 10 сезон 1-22 серии из 22 [мелодрама, комедия, криминал, 2014-2015] WEB-DLRip, Mvo [BaibaKo]

salma3

824 | 405

12.75 ГБ

В этой теме нет новых непрочитанных сообщений. Врожденный порок /  Inherent Vice (Пол Томас Андерсон) [Драма, Мелодрама, Комедия, Детектив, Криминал, 2014] WEB-DLRip, dvo

Dracon

8 | 3

1.47 ГБ


Начать новую тему Ответить на тему  [ 1 сообщение ] 




Для Мосгорсуда, Роскомнадзора и рекламодателей:: mosgorsud-torrent[собачка]yandex.ru