Торрент файл
скачать торрент магнет ссылка Добавлен: 14 мар 2016, 21:53
Размер: 1.15 ГБ
Сидеров: 4
Личеров: 2
Статус: (salma3)
Автор

СообщениеДобавлено: 14 мар 2016, 21:53 

Не в сети
Супермодератор
Аватара пользователя
Дата регистрации:
15 фев 2012, 16:44
Возраст: 27
Спасибо: 5135 / 2089
Сообщения: 17406
Страна: США
Жанр: Комедия , ужастик
Год выпуска: 1988
Продолжительность: 1:22:27

Перевод: Авторский (одноголосый закадровый) Ю.Живов

Режиссер: Энтони Перкинс / Anthony Perkins

В ролях: Донна Диксон, Джо Аляски, Джефф Кобер, Фран Райан, Уильям Морган Шеппард, Барбара Ховард, Ли МакКлоски, Элизабет Арлен, Чарльз Фрэнк, Энди Вуд

Описание: Толстяку Рону Дугласу не везёт с женщинами. Его невеста сбежала от него в день свадьбы, и на выходные он решает отправиться в горы, только за тем, чтобы острее почувствовать боль утраты, в отеле, где он собирался провести медовый месяц. Но неожиданно Рон встречает Синтию, прекрасную блондинку, влюбляется в неё и добивается взаимности, что несказанно повышает его самооценку. Синтия приглашает Рона на рождественский обед, и окрылённый Рон соглашается, не подозревая, что главным блюдом для безумной семейки его новой пассии должен стать ОН САМ.

Доп. информация: За звуковую дорожку спасибо Evil ED 86

Сэмпл: https://www.sendspace.com/file/i7zj64

Качество видео: VHSRip
Формат видео: AVI
Видео: XviD MPEG-4 , 712x456 (1.56:1) , 29.970 fps , 1 600 Kbps
Аудио: АC3 , 48 kHz , 192.00 kbps avg , 2/0 (L,R) ch (RUS)
Аудио 2: АC3 , 48 kHz , 192.00 kbps avg , 2/0 (L,R) ch (ENG)

Complete name Счастливчик Стифф 1988.avi
Format : AVI
Format/Info : Audio Video Interleave
File size : 1.15 GiB
Duration : 1h 22mn
Overall bit rate : 2 001 Kbps
Writing application : VirtualDubMod 1.5.10.3 | http://www.virtualdub-fr.org || (build 2550/release)
Writing library : VirtualDubMod build 2550/release

Video
ID : 0
Format : MPEG-4 Visual
Format profile : Simple@L3
Format settings, BVOP : No
Format settings, QPel : No
Format settings, GMC : No warppoints
Format settings, Matrix : Default (H.263)
Codec ID : XVID
Codec ID/Hint : XviD
Duration : 1h 22mn
Bit rate : 1 600 Kbps
Width : 712 pixels
Height : 456 pixels
Display aspect ratio : 16:10
Frame rate : 29.970 (29970/1000) fps
Color space : YUV
Chroma subsampling : 4:2:0
Bit depth : 8 bits
Scan type : Progressive
Compression mode : Lossy
Bits/(Pixel*Frame) : 0.164
Stream size : 944 MiB (80%)
Writing library : XviD 1.2.1 (UTC 2008-12-04)

Audio #1
ID : 1
Format : AC-3
Format/Info : Audio Coding 3
Mode extension : CM (complete main)
Format settings, Endianness : Big
Codec ID : 2000
Duration : 1h 22mn
Bit rate mode : Constant
Bit rate : 192 Kbps
Channel(s) : 2 channels
Channel positions : Front: L R
Sampling rate : 48.0 KHz
Frame rate : 31.250 fps (1536 spf)
Compression mode : Lossy
Stream size : 113 MiB (10%)
Alignment : Split accross interleaves
Interleave, duration : 33 ms (1.00 video frame)
Interleave, preload duratio : 500 ms

Audio #2
ID : 2
Format : AC-3
Format/Info : Audio Coding 3
Mode extension : CM (complete main)
Format settings, Endianness : Big
Codec ID : 2000
Duration : 1h 22mn
Bit rate mode : Constant
Bit rate : 192 Kbps
Channel(s) : 2 channels
Channel positions : Front: L R
Sampling rate : 48.0 KHz
Frame rate : 31.250 fps (1536 spf)
Compression mode : Lossy
Stream size : 113 MiB (10%)
Alignment : Aligned on interleaves
Interleave, duration : 33 ms (1.00 video frame)
Interleave, preload duratio : 512 ms


_________________



реклама партнёра


Вернуться к началу
 Профиль Отправить личное сообщение  
 
   Похожие торренты   Автор   Торрент   Размер 
В этой теме нет новых непрочитанных сообщений. Счастливчик / Lucky [комедия, 2011] HDRip, Mvo

salma3

42 | 3

1.46 ГБ

В этой теме нет новых непрочитанных сообщений. Счастливчик / Lucky [триллер, комедия, 2011] BDRip 1080p, Dvo+Sub

salma3

27 | 5

5.9 ГБ

В этой теме нет новых непрочитанных сообщений. Mick Blue Is One Lucky Bastard / Mick Blue Счастливчик (Mick Blue / Zero Tolerance) (Carter Cruise, Adriana Chechik, Anikka Albrite, Skin Diamond, Dahlia Sky) [2015 г., Gonzo , Interracial, Hardcore, Natural tits, DVDRip 396p]

friizze

0 | 6

1.39 ГБ

В этой теме нет новых непрочитанных сообщений. Скорострельный / Fast Gun [Боевик, триллер, криминал, 1988] VHSRip, Avo

salma3

1 | 0

1.09 ГБ

В этой теме нет новых непрочитанных сообщений. Другой ошибки не будет / Not Another Mistake [Боевик, военный, 1988] VHSRip. Avo

salma3

1 | 0

1.45 ГБ

В этой теме нет новых непрочитанных сообщений. Падший ангел / Broken Angel [триллер, драма, 1988] VHSRip, Avo

salma3

1 | 2

932.64 МБ

В этой теме нет новых непрочитанных сообщений. Счастливчик Гилмор / Happy Gilmore [комедия, спорт, 1996] BDRemux 1080p, Mvo

salma3

7 | 0

21.59 ГБ


Начать новую тему Ответить на тему  [ 1 сообщение ] 




Для Мосгорсуда, Роскомнадзора и рекламодателей:: mosgorsud-torrent[собачка]yandex.ru