Торрент файл
скачать торрент магнет ссылка Добавлен: 14 мар 2016, 16:02
Размер: 1.46 ГБ
Сидеров: 23
Личеров: 7
Статус: (salma3)
Автор

СообщениеДобавлено: 14 мар 2016, 16:02 

Не в сети
Супермодератор
Аватара пользователя
Дата регистрации:
15 фев 2012, 16:44
Возраст: 28
Спасибо: 6579 / 2143
Сообщения: 43992
Год выхода: 2015
Выпущено: Гонконг / Dreams Salon Entertainment Culture
Жанр: боевик, драма, биография, история
Продолжительность: 01:44:41
Перевод: Любительский (многоголосый закадровый) RecentFilms
Оригинальная аудиодорожка: китайская
Режиссер:
Уилсон Ип / Wilson Yip

В ролях:
Донни Ен, Майк Тайсон, Линн Хун, Цзинь Чжан, Патрик Там, Карина ЭнДжи, Kai-Chung Cheung, Кент Чэн, Ка-Ян Леунг, Квок-Куен Чан
О фильме:
Полубиографический фильм о жизни Ип Мана — первого человека, начавшего открыто преподавать кунг-фу (стиль Вин-Чунь).

КиноПоиск | Сэмпл |


Качество: BDRip [Ip.Man.3.2015.CHINESE.1080p.BluRay.AVC.DTS-HD.MA.7.1-FGT]
Формат: AVI
Видео: 720x304 (2.37:1), 24.000 fps, XviD build 67 ~1603 kbps avg, 0.30 bit/pixel
Аудио #1: 48 kHz, AC3 Dolby Digital, 2/0 (L,R) ch, ~192 kbps avg (RUS)
Аудио #2: 48 kHz, AC3 Dolby Digital, 2/0 (L,R) ch, ~192 kbps avg (CHI)[/font]
Код:
Код:
Общее
Полное имя                               : C:\Ip_Man_3_2015_BDRip_MVO_by_Dalemake.avi
Формат                                   : AVI
Формат/Информация                        : Audio Video Interleave
Размер файла                             : 1,46 Гбайт
Продолжительность                        : 1 ч. 44 м.
Общий поток                              : 2002 Кбит/сек
Программа кодирования                    : VirtualDubMod 1.5.10.3 | www.virtualdub-fr.org || (build 2550/release)
Библиотека кодирования                   : VirtualDubMod build 2550/release

Видео
Идентификатор                            : 0
Формат                                   : MPEG-4 Visual
Профиль формата                          : Advanced Simple@L5
Параметр BVOP формата                    : 1
Параметр QPel формата                    : Нет
Параметр GMC формата                     : Без точки перехода
Параметр матрицы формата                 : Выборочная
Идентификатор кодека                     : XVID
Идентификатор кодека/Подсказка           : XviD
Продолжительность                        : 1 ч. 44 м.
Битрейт                                  : 1604 Кбит/сек
Ширина                                   : 720 пикселей
Высота                                   : 304 пикселя
Соотношение сторон                       : 2,35:1
Частота кадров                           : 24,000 кадра/сек
Цветовое пространство                    : YUV
Субдискретизация насыщенности            : 4:2:0
Битовая глубина                          : 8 бит
Тип развёртки                            : Прогрессивная
Метод сжатия                             : С потерями
Бит/(Пиксели*Кадры)                      : 0.305
Размер потока                            : 1,17 Гбайт (80%)
Библиотека кодирования                   : XviD 67

Аудио #1
Идентификатор                            : 1
Формат                                   : AC-3
Формат/Информация                        : Audio Coding 3
Расширение режима                        : CM (complete main)
Параметр Endianness формата              : Big
Идентификатор кодека                     : 2000
Продолжительность                        : 1 ч. 44 м.
Вид битрейта                             : Постоянный
Битрейт                                  : 192 Кбит/сек
Каналы                                   : 2 канала
Расположение каналов                     : Front: L R
Частота                                  : 48,0 КГц
Метод сжатия                             : С потерями
Размер потока                            : 144 Мбайт (10%)
Выравнивание                             : Разделение по промежуткам
Продолжительность промежутка             : 42  мс. (1,00 видеокадр)
Время предзагрузки промежутка            : 500  мс.

Аудио #2
Идентификатор                            : 2
Формат                                   : AC-3
Формат/Информация                        : Audio Coding 3
Расширение режима                        : CM (complete main)
Параметр Endianness формата              : Big
Идентификатор кодека                     : 2000
Продолжительность                        : 1 ч. 44 м.
Вид битрейта                             : Постоянный
Битрейт                                  : 192 Кбит/сек
Каналы                                   : 2 канала
Расположение каналов                     : Front: L R
Частота                                  : 48,0 КГц
Метод сжатия                             : С потерями
Размер потока                            : 144 Мбайт (10%)
Выравнивание                             : Разделение по промежуткам
Продолжительность промежутка             : 42  мс. (1,00 видеокадр)
Время предзагрузки промежутка            : 500  мс.


Релиз групп[/color]


_________________
Проголосуй за трекер Открытый торрент трекер - RUS-MEDIA.ORG

Проголосуй Открытый торрент трекер - RUS-MEDIA.ORG



реклама партнёра


Вернуться к началу
 Профиль Отправить личное сообщение  
 
   Похожие торренты   Автор   Торрент   Размер 
В этой теме нет новых непрочитанных сообщений. Ип Ман 3D / Yip Man 3 [боевик, драма, биография, история, 2015] BDRip 720p, Mvo

salma3

1277 | 74

4.46 ГБ

В этой теме нет новых непрочитанных сообщений. Ип Ман 3D / Yip Man 3 [боевик, драма, биография, история, 2015] BDRip 1080p, Mvo

salma3

1525 | 148

6.63 ГБ

В этой теме нет новых непрочитанных сообщений. В сердце моря / In the Heart of the Sea (боевик, триллер, драма, приключения, биография, история, 2015) BDRip | A

marya111

63 | 3

2.18 ГБ

В этой теме нет новых непрочитанных сообщений. В сердце моря / In the Heart of the Sea [боевик, триллер, драма, приключения, биография, история, 2015] BDRip-AVC, Dub+Sub [iTunes]

salma3

3409 | 498

2.69 ГБ

В этой теме нет новых непрочитанных сообщений. Адмирал / Michiel de Ruyter (Роэль Рейн) [Боевик, биография, история, 2015] BDRip 1080p, dvo

Dracon

57 | 15

9.91 ГБ

В этой теме нет новых непрочитанных сообщений. Адмирал / Michiel de Ruyter (Роэль Рейн) [Боевик, биография, история, 2015] BDRip 720p, dvo

Dracon

158 | 32

5.32 ГБ

В этой теме нет новых непрочитанных сообщений. 33 / The 33 [драма, биография, история, 2015] BDRip 720p, Dub [SDI Media]

salma3

42 | 27

8.34 ГБ


Начать новую тему Ответить на тему  [ 1 сообщение ] 




Для Мосгорсуда, Роскомнадзора и рекламодателей:: mosgorsud-torrent[собачка]yandex.ru