Торрент файл
скачать торрент магнет ссылка Добавлен: 14 мар 2016, 13:10
Размер: 1.09 ГБ
Сидеров: 1
Личеров: 0
Статус: (salma3)
Автор

СообщениеДобавлено: 14 мар 2016, 13:10 

В сети
Супермодератор
Аватара пользователя
Дата регистрации:
15 фев 2012, 16:44
Возраст: 28
Спасибо: 6577 / 2143
Сообщения: 43880
Страна: США
Жанр: Боевик , триллер , криминал
Год выпуска: 1988
Продолжительность: 1:16:19

Перевод: Авторский (одноголосый закадровый) А.Алексеев
Режиссер: Сирио Х. Сантьяго / Cirio H. Santiago

В ролях: Рик Хилл, Каз Гарас, Роберт Драйер, Бренда Бакки, Морган Стриклэнд, Фрэнк Диаз, Lito Aguas, Джеймс Брюэр, Тони Купер, Мэл Дэвидсон

Описание: Люди полковника ЦРУ Харпера грабят военные склады с оружием. В оружии нуждаются южноамериканские повстанцы. Повстанцы скрываются неподалеку от гранитного озера в небольшом городке ,шерифом которого является Джек Штайгер.

Доп. информация: Релиз появился благодаря Evil ED 86 , за что ему спасибо

Сэмпл: https://www.sendspace.com/file/eohbjs

Качество видео: VHSRip
Формат видео: AVI
Видео: XviD MPEG-4 , 640x480 (1.33:1) , 25.000 fps , 1 847 Kbps
Аудио: АC3 , 48 kHz , 192.00 kbps avg , 2/0 (L,R) ch
Complete name Скорострельный 1988.avi
Format : AVI
Format/Info : Audio Video Interleave
File size : 1.09 GiB
Duration : 1h 16mn
Overall bit rate : 2 048 Kbps
Writing application : VirtualDubMod 1.5.10.3 | http://www.virtualdub-fr.org || (build 2550/release)
Writing library : VirtualDubMod build 2550/release

Video
ID : 0
Format : MPEG-4 Visual
Format profile : Advanced Simple@L5
Format settings, BVOP : 1
Format settings, QPel : No
Format settings, GMC : No warppoints
Format settings, Matrix : Custom
Codec ID : XVID
Codec ID/Hint : XviD
Duration : 1h 16mn
Bit rate : 1 847 Kbps
Width : 640 pixels
Height : 480 pixels
Display aspect ratio : 4:3
Frame rate : 25.000 fps
Color space : YUV
Chroma subsampling : 4:2:0
Bit depth : 8 bits
Scan type : Progressive
Compression mode : Lossy
Bits/(Pixel*Frame) : 0.240
Stream size : 1 008 MiB (90%)
Writing library : XviD 73

Audio
ID : 1
Format : AC-3
Format/Info : Audio Coding 3
Mode extension : CM (complete main)
Format settings, Endianness : Big
Codec ID : 2000
Duration : 1h 16mn
Bit rate mode : Constant
Bit rate : 192 Kbps
Channel(s) : 2 channels
Channel positions : Front: L R
Sampling rate : 48.0 KHz
Frame rate : 31.250 fps (1536 spf)
Compression mode : Lossy
Stream size : 105 MiB (9%)
Alignment : Split accross interleaves
Interleave, duration : 40 ms (1.00 video frame)
Interleave, preload duratio : 500 ms


_________________
Проголосуй за трекер Открытый торрент трекер - RUS-MEDIA.ORG

Проголосуй Открытый торрент трекер - RUS-MEDIA.ORG



реклама партнёра


Вернуться к началу
 Профиль Отправить личное сообщение  
 
   Похожие торренты   Автор   Торрент   Размер 
В этой теме нет новых непрочитанных сообщений. Фатальная женщина / Смертоносная женщина / Lethal Woman / The Most Dangerous Woman Alive [Триллер, боевик, драма, криминал, 1988] VHSRip, Avo

salma3

95 | 17

706.56 МБ

В этой теме нет новых непрочитанных сообщений. Боевик Джексон / Action Jackson [боевик, триллер, комедия, криминал, 1988] BDRip 720p, Dub+Mvo+Avo

salma3

44 | 7

9.35 ГБ

В этой теме нет новых непрочитанных сообщений. Боевик Джексон / Action Jackson [боевик, триллер, комедия, криминал, 1988] BDRip 1080p, Dub+Mvo+Avo

salma3

31 | 34

10.82 ГБ

В этой теме нет новых непрочитанных сообщений. Другой ошибки не будет / Not Another Mistake [Боевик, военный, 1988] VHSRip. Avo

salma3

2 | 1

1.45 ГБ

В этой теме нет новых непрочитанных сообщений. Падший ангел / Broken Angel [триллер, драма, 1988] VHSRip, Avo

salma3

1 | 2

932.64 МБ

В этой теме нет новых непрочитанных сообщений. Нет выбора / Taffin [Боевик, триллер, криминал, 1988] DVDRip, Dvo

salma3

69 | 26

1.37 ГБ

В этой теме нет новых непрочитанных сообщений. Молодые стрелки / Young Guns [Боевик, Триллер, Вестерн, Криминал, 1988] Blu-ray 1080p, Dvo+Sub

salma3

1 | 1

21.58 ГБ


Начать новую тему Ответить на тему  [ 1 сообщение ] 




Для Мосгорсуда, Роскомнадзора и рекламодателей:: mosgorsud-torrent[собачка]yandex.ru