Торрент файл
скачать торрент магнет ссылка Добавлен: 14 мар 2016, 12:58
Размер: 1.45 ГБ
Сидеров: 7
Личеров: 2
Статус: (salma3)
Автор

СообщениеДобавлено: 14 мар 2016, 12:58 

В сети
Супермодератор
Аватара пользователя
Дата регистрации:
15 фев 2012, 16:44
Возраст: 27
Спасибо: 5121 / 2089
Сообщения: 17303
Страна: США
Жанр: Триллер, детектив
Год выпуска: 1993
Продолжительность: 1:35:04

Перевод: Авторский (одноголосый закадровый) В.Горчаков
Режиссер: Уорт Китер / Worth Keeter

В ролях: Стивен Бауэр,Челси Филд, Памела Андерсон, Мэтт МакКой, Кеннет Тайгар, Ларри Манетти, Рэнс Ховард, Глория ЛеРой, Диана Ли Хсю, Ирэн Тсу

Описание: Однажды ночью в спальню к благополучной семье врываются вооруженные люди и жестоко расправившись с матерью и отцом, похищают маленькую дочь. Испуганному ребенку выжигают на теле таинственное клеймо — Знак Дракона, которым в древности на Востоке метили рабынь-наложниц.
В соответствии с преданием, «помеченные» девушки служили спасительницами людских душ, убивая мужчину в момент оргазма. По представлениям древних, души умерших, освободившиеся в момент наивысшего наслаждения, переселялись в иные измерения, а сам усопший получал избавление от своих грехов.
И спустя несколько лет, в городе начинают происходить серия Востренных и похожих убийств. Девушка во время занятия любовью, перерезает партнерам горло, оставляя после себя Знак Дракона, нарисованный кровью. Следователи и полицейский психолог Дэйвид Стрэттон приступают к расследованию этого загадочного преступления…

Доп. информация: За звуковую дорожку спасибо DeadBigBoy
Произведён ремастеринг звука

Сэмпл: https://www.sendspace.com/file/pfhbc3

Качество видео: DVDRip
Формат видео: AVI
Видео: XviD , 704x400 (1.76:1) ,25.000 fps ,1 986 Kbps
Аудио: AC3 , 48 kHz , 192.00 kbps avg , 2/0 (L,R) ch
Complete name Знак дракона 1993.avi
Format : AVI
Format/Info : Audio Video Interleave
File size : 1.45 GiB
Duration : 1h 35mn
Overall bit rate : 2 188 Kbps
Writing application : VirtualDubMod 1.5.10.3 | http://www.virtualdub-fr.org || (build 2550/release)
Writing library : VirtualDub build 35491/release

Video
ID : 0
Format : MPEG-4 Visual
Format profile : Advanced Simple@L5
Format settings, BVOP : 1
Format settings, QPel : No
Format settings, GMC : No warppoints
Format settings, Matrix : Custom
Codec ID : XVID
Codec ID/Hint : XviD
Duration : 1h 35mn
Bit rate : 1 986 Kbps
Width : 704 pixels
Height : 400 pixels
Display aspect ratio : 16:9
Frame rate : 25.000 fps
Color space : YUV
Chroma subsampling : 4:2:0
Bit depth : 8 bits
Scan type : Progressive
Compression mode : Lossy
Bits/(Pixel*Frame) : 0.282
Stream size : 1.32 GiB (91%)
Writing library : XviD 73

Audio
ID : 1
Format : AC-3
Format/Info : Audio Coding 3
Mode extension : CM (complete main)
Format settings, Endianness : Big
Codec ID : 2000
Duration : 1h 35mn
Bit rate mode : Constant
Bit rate : 192 Kbps
Channel(s) : 2 channels
Channel positions : Front: L R
Sampling rate : 48.0 KHz
Frame rate : 31.250 fps (1536 spf)
Compression mode : Lossy
Stream size : 131 MiB (9%)
Alignment : Aligned on interleaves
Interleave, duration : 40 ms (1.00 video frame)
Interleave, preload duratio : 512 ms


_________________



реклама партнёра


Вернуться к началу
 Профиль Отправить личное сообщение  
 
   Похожие торренты   Автор   Торрент   Размер 
В этой теме нет новых непрочитанных сообщений. Молодой детектив Ди: Восстание морского дракона / Young Detective Dee: Rise of the Sea Dragon [фентези, боевик, детектив, триллер, 2013] HDRip, Dvo

salma3

720 | 26

1.67 ГБ

В этой теме нет новых непрочитанных сообщений. Кровавый знак / Red Swastik [триллер, драма, криминал, 2007] DVDRip, Mvo

salma3

1 | 4

1.46 ГБ

В этой теме нет новых непрочитанных сообщений. Молодой детектив Ди: Восстание морского дракона / Young Detective Dee: Rise of the Sea Dragon [фентези, боевик, триллер, детектив, 2013] BDRip 720p, Dvo

salma3

153 | 10

7.16 ГБ

В этой теме нет новых непрочитанных сообщений. Непристойное поведение / Indecent Behavior [Триллер, детектив, 1993] DVDRip, Avo+Sub

salma3

1 | 3

804.32 МБ

В этой теме нет новых непрочитанных сообщений. Розы мертвы / Acting on Impulse [Триллер, комедия, детектив, 1993] DVDRip, Mvo

salma3

5 | 3

1.45 ГБ

В этой теме нет новых непрочитанных сообщений. Нагрудный знак 373 / Badge 373 [триллер, драма, криминал, 1973] IPTVRip, Mvo

salma3

36 | 5

1.7 ГБ

В этой теме нет новых непрочитанных сообщений. Знак почёта / Badge of Honor (Агустин) [триллер, драма, криминал, 2015] WEB-DLRip, Mvo

Dracon

1 | 0

1.46 ГБ


Начать новую тему Ответить на тему  [ 1 сообщение ] 




Для Мосгорсуда, Роскомнадзора и рекламодателей:: mosgorsud-torrent[собачка]yandex.ru