Торрент файл
скачать торрент магнет ссылка Добавлен: 13 мар 2016, 22:07
Размер: 742.91 МБ
Сидеров: 101
Личеров: 14
Статус: (salma3)
Автор

СообщениеДобавлено: 13 мар 2016, 22:07 

В сети
Супермодератор
Аватара пользователя
Дата регистрации:
15 фев 2012, 16:44
Возраст: 27
Спасибо: 5139 / 2089
Сообщения: 17423
Год выхода: 1977
Жанр: Фантастика, приключения, драма
Режиссер: Кевин Коннор / Kevin Connor

В ролях: Патрик Уэйн, Даг МакКлюр, Сара Дуглас, Дана Гиллеспи, Торли Уолтерс,Шейн Риммер, Тони Бриттон, Джон Халлам, Дэвид Прауз, Милтон Рейд, Киран Шах, Ричард ЛеПарментье, Тони МакХэйл

О фильме: 1919 год. Закончилась Первая мировая война. Майор британских военно-морских сил Бен Макбрайд организует экспедицию в ледяные антарктические пустоши на поиски своего друга Боуэна Тайлера, который пропал без вести несколько лет назад. Вскоре искатели приключений оказываются в странном мире, населенном первобытными воинами, пещерными людьми, динозаврами и другими доисторическими монстрами. Экспедиция попадает в руки членов жестокого древнего культа...
Доп. информация: Продолжение фильма "Земля, забытая временем" (1975)



Страна: Великобритания
Студия: Amicus Productions, American International Pictures
Продолжительность: 01:27:05
Перевод: Профессиональный (двухголосый, закадровый) - НТВ+

Файл
Формат: avi
Качество: HDTVRip (HDTV.1080i)
Видео: XviD, 656x368, 25fps, 1055kbps
Аудио: MPEG Layer 3, 2ch, 48000Hz, 128kbps

General
Complete name : Ludi.Zabytye.Vremenem.1977.P2.HDTVRip.700.CurHaJI.avi
Format : AVI
Format/Info : Audio Video Interleave
File size : 743 MiB
Duration : 1h 27mn
Overall bit rate : 1 193 Kbps
Movie name : Ludi.Zabytye.Vremenem.1977.P2.HDTVRip.700.CurHaJI
Writing library : VirtualDub build 35491/release
Video
ID : 0
Format : MPEG-4 Visual
Format profile : Advanced Simple@L5
Format settings, BVOP : 1
Format settings, QPel : No
Format settings, GMC : No warppoints
Format settings, Matrix : Custom
Codec ID : XVID
Codec ID/Hint : XviD
Duration : 1h 27mn
Bit rate : 1 055 Kbps
Width : 656 pixels
Height : 368 pixels
Display aspect ratio : 16:9
Frame rate : 25.000 fps
Color space : YUV
Chroma subsampling : 4:2:0
Bit depth : 8 bits
Scan type : Progressive
Compression mode : Lossy
Bits/(Pixel*Frame) : 0.175
Stream size : 657 MiB (88%)
Writing library : XviD 73
Audio
ID : 1
Format : MPEG Audio
Format version : Version 1
Format profile : Layer 3
Codec ID : 55
Codec ID/Hint : MP3
Duration : 1h 27mn
Bit rate mode : Constant
Bit rate : 128 Kbps
Channel(s) : 2 channels
Sampling rate : 48.0 KHz
Compression mode : Lossy
Stream size : 79.7 MiB (11%)
Alignment : Split accross interleaves
Interleave, duration : 40 ms (1.00 video frame)
Interleave, preload duration : 500 ms
Writing library : L3.99r
Encoding settings : -m s -V 4 -q 2 -lowpass 17 -b 128



Релиз от:


_________________



реклама партнёра


Вернуться к началу
 Профиль Отправить личное сообщение  
 
   Похожие торренты   Автор   Торрент   Размер 
В этой теме нет новых непрочитанных сообщений. Земля, забытая временем / The Land That Time Forgot [Приключения, фантастика, драма, 1975] HDTVRip, Avo

salma3

102 | 10

742.81 МБ

В этой теме нет новых непрочитанных сообщений. Земля, забытая временем / The Land That Time Forgot [приключения, фантастика, 1975] DVDRip, Avo

salma3

15 | 7

1.47 ГБ

В этой теме нет новых непрочитанных сообщений. История Игрушек: То, что забыто / Toy Story That Time Forgot [Короткометражный анимационный фильм, 2014] HDTVRip, avo

Dracon

549 | 6

325.33 МБ

В этой теме нет новых непрочитанных сообщений. Обыкновенные люди / Ordinary People [драма, 1980] HDTV 1080i, Dvo [НТВ+]

salma3

9 | 4

7.54 ГБ

В этой теме нет новых непрочитанных сообщений. Люди-кошки / Cat People [Триллер, фэнтези, ужасы, драма, 1982] BDRip 1080p, Mvo+Avo+Sub

salma3

4 | 3

9.48 ГБ

В этой теме нет новых непрочитанных сообщений. Путешествие в машине времени / Time After Time [фантастика, триллер, драма, мелодрама, комедия, приключения, 1979] DVDRip, Mvo+Dvo

salma3

19 | 5

1.46 ГБ

В этой теме нет новых непрочитанных сообщений. Люди-кошки / Cat People [триллер, фэнтези, ужасы, драма, мелодрама, 1982] BDRip 720p, Mvo+Avo

salma3

8 | 2

4.86 ГБ


Начать новую тему Ответить на тему  [ 1 сообщение ] 




Для Мосгорсуда, Роскомнадзора и рекламодателей:: mosgorsud-torrent[собачка]yandex.ru