Торрент файл
скачать торрент магнет ссылка Добавлен: 13 мар 2016, 17:51
Размер: 1.36 ГБ
Сидеров: 0
Личеров: 0
Статус: (salma3)
Автор

СообщениеДобавлено: 13 мар 2016, 17:51 

Не в сети
Супермодератор
Аватара пользователя
Дата регистрации:
15 фев 2012, 16:44
Возраст: 27
Спасибо: 5139 / 2090
Сообщения: 17432
Производство: Франция, Бельгия
Жанр: Детектив,триллер, драма
Режиссер: Люка Бельво

Актеры: Иван Атталь, Анн Консиньи, Андре Маркон, Франсуаза Фабиан, Алекс Дека, Мишель Войта, Жерар Мейлан, Максим Лефрансуа, Кристоф Курочкин

Описание:
Президент компании похищен преступной группировкой с целью выкупа. В это же время семья, компания похищенного и правоохранительные органы никак не могут договориться, как вести расследование, и гнут свою линию.



Продолжительность: 02:00:24
Качество видео: HDRip
Перевод: Профессиональный [двуголосый] [студия Elrom]

Видео: MPEG4, XviD, 720x304 (2.35:1), 25.000 fps, 1 223 Kbps (0.223 bit/pixel)
Аудио #1: AC-3, 48.0 KHz, 2 ch, 192 Kbps, CBR | Русский
Аудио #2: AC-3, 48.0 KHz, 2 ch, 192 Kbps, CBR | Французский

Код:
Общее
Полное имя                               : C:\NNM\Похищение\Pohischenie 2009 HDRip.avi
Формат                                   : AVI
Формат/Информация                        : Audio Video Interleave
Размер файла                             : 1,36 Гбайт
Продолжительность                        : 2 ч. 0 м.
Общий поток                              : 1621 Кбит/сек

Видео
Идентификатор                            : 0
Формат                                   : MPEG-4 Visual
Профиль формата                          : Advanced Simple@L5
Параметр BVOP формата                    : 1
Параметр QPel формата                    : Нет
Параметр GMC формата                     : Без точки перехода
Параметр матрицы формата                 : Default (MPEG)
Идентификатор кодека                     : XVID
Идентификатор кодека/Подсказка           : XviD
Продолжительность                        : 2 ч. 0 м.
Битрейт                                  : 1223 Кбит/сек
Ширина                                   : 720 пикселей
Высота                                   : 304 пикселя
Соотношение сторон                       : 2,35:1
Частота кадров                           : 25,000 кадров/сек
Частота кадров в оригинале               : 23,976 кадра/сек
Цветовое пространство                    : YUV
Субдискретизация насыщенности            : 4:2:0
Битовая глубина                          : 8 бит
Тип развёртки                            : Прогрессивная
Метод сжатия                             : С потерями
Бит/(Пиксели*Кадры)                      : 0.223
Размер потока                            : 1,03 Гбайт (75%)
Библиотека кодирования                   : XviD 58

Аудио #1
Идентификатор                            : 1
Формат                                   : AC-3
Формат/Информация                        : Audio Coding 3
Расширение режима                        : CM (complete main)
Параметр Endianness формата              : Big
Идентификатор кодека                     : 2000
Продолжительность                        : 2 ч. 0 м.
Вид битрейта                             : Постоянный
Битрейт                                  : 192 Кбит/сек
Каналы                                   : 2 канала
Расположение каналов                     : Front: L R
Частота                                  : 48,0 КГц
Частота кадров                           : 31,250 кадров/сек (1536 spf)
Метод сжатия                             : С потерями
Размер потока                            : 165 Мбайт (12%)
Выравнивание                             : Разделение по промежуткам
Продолжительность промежутка             : 40  мс. (1,00 видеокадр)
Время предзагрузки промежутка            : 500  мс.

Аудио #2
Идентификатор                            : 2
Формат                                   : AC-3
Формат/Информация                        : Audio Coding 3
Расширение режима                        : CM (complete main)
Параметр Endianness формата              : Big
Идентификатор кодека                     : 2000
Продолжительность                        : 2 ч. 0 м.
Вид битрейта                             : Постоянный
Битрейт                                  : 192 Кбит/сек
Каналы                                   : 2 канала
Расположение каналов                     : Front: L R
Частота                                  : 48,0 КГц
Частота кадров                           : 31,250 кадров/сек (1536 spf)
Метод сжатия                             : С потерями
Размер потока                            : 165 Мбайт (12%)
Выравнивание                             : Разделение по промежуткам
Продолжительность промежутка             : 40  мс. (1,00 видеокадр)
Время предзагрузки промежутка            : 500  мс.


_________________



реклама партнёра


Вернуться к началу
 Профиль Отправить личное сообщение  
 
   Похожие торренты   Автор   Торрент   Размер 
В этой теме нет новых непрочитанных сообщений. Похищение / Rapt [криминал, 2009] BDRip 720p, Dvo+Avo+Sub

salma3

25 | 8

6.5 ГБ

В этой теме нет новых непрочитанных сообщений. Похищение Фредди Хайнекена / Kidnapping Mr. Heineken (Дэниэл Альфредсон) [боевик, триллер, драма, криминал, 2015] HDRip, dub [Чистый звук]

Dracon

24 | 0

1.37 ГБ

В этой теме нет новых непрочитанных сообщений. Похищение Фредди Хайнекена / Kidnapping Mr. Heineken (Дэниэл Альфредсон) [боевик, триллер, драма, криминал, 2015] HDRip [Студия Пиратского Дубляжа]

Dracon

19 | 4

1.37 ГБ

В этой теме нет новых непрочитанных сообщений. Инопланетное похищение / Alien Abduction [Ужасы, фантастика, триллер, 2014] HDRip, avo

Dracon

484 | 18

1.46 ГБ

В этой теме нет новых непрочитанных сообщений. Похищение Зака Баттерфилда / The Abduction of Zack Butterfield [драма, триллер, криминал, 2011] WEB-DLRip, Avo

salma3

99 | 20

1.34 ГБ

В этой теме нет новых непрочитанных сообщений. Дитя тьмы / Orphan [ужасы, триллер, драма, детектив, 2009] HDRip, Dub

salma3

0 | 2

1.46 ГБ

В этой теме нет новых непрочитанных сообщений. Похищение Фредди Хайнекена / Kidnapping Mr. Heineken (Дэниэл Альфредсон) [боевик, триллер, драма, криминал, 2015] WEB-DL 720p, dvo

Dracon

42 | 5

3.06 ГБ


Начать новую тему Ответить на тему  [ 1 сообщение ] 




Для Мосгорсуда, Роскомнадзора и рекламодателей:: mosgorsud-torrent[собачка]yandex.ru