Торрент файл
скачать торрент магнет ссылка Добавлен: 13 мар 2016, 13:33
Размер: 2.18 ГБ
Сидеров: 15
Личеров: 5
Статус: (salma3)
Автор

СообщениеДобавлено: 13 мар 2016, 13:33 

В сети
Супермодератор
Аватара пользователя
Дата регистрации:
15 фев 2012, 16:44
Возраст: 27
Спасибо: 5139 / 2089
Сообщения: 17430
На гребне волны / Point Break

Год выпуска: 2015
Выпущено: США / Alcon Entertainment, DMG Entertainment
Жанр: боевик, триллер, криминал, спорт
Продолжительность: 01:53:50
Перевод: Профессиональный (полное дублирование) BD CEE |Лицензия|
Cубтитры: Русские (полные + форсированные), Английские (полные, SDH) (внешние srt*)
Оригинальная аудиодорожка: Английская
Режиссер:
Эриксон Кор / Ericson Core
В ролях:
Люк Брейси (Utah), Эдгар Рамирес (Bodhi), Рэй Уинстон (Pappas), Тереза Палмер (Samsara), Матиас Варела (Grommet), Клеменс Шик (Roach), Тобиас Зантельман (Chowder), Макс Тириот (Jeff), Делрой Линдо (Instructor Hall), Николай Кински (Pascal Al Fariq), Джуда Льюис (Young Utah), Глайнис Барбер (FBI - Head of Investigations), Стив Туссэн (FBI Dept. Director #1), Джеймс ЛеГрос (FBI Dept. Director #2)
О фильме:
Джонни — молодой агент ФБР, специализирующийся на работе под прикрытием. Он не раз выходил из самых сложных ситуаций, всегда доделывая свою работу до конца. Его очередным заданием становится проникновение в банду воров. Однако эти люди не обычные грабители: их главным отличием от остальных является увлечение экстремальными видами спорта. Свои умения они используют при каждом новом ограблении, и стать частью их команды очень непросто. Чтобы войти в банду и остановить преступников, Джонни придется доказать, что он такой же как они, а для этого ему не раз предстоит рискнуть собственной жизнью…



Качество: BDRip
[b]Формат
: AVI

Видео: 720x304 (2.37:1), 23.976 fps, XviD build 67 ~1970 kbps avg, 0.38 bit/pixel
Аудио #1: 48 kHz, AC3 Dolby Digital, 3/2 (L,C,R,l,r) + LFE ch, ~384.00 kbps avg (RUS)
Аудио #2: 48 kHz, AC3 Dolby Digital, 3/2 (L,C,R,l,r) + LFE ch, ~384.00 kbps avg (ENG)


Код:
Код:
General
Complete name                            : D:\Na_grebne_volny_2015_BDRip_[2.18]_by_Dalemake.avi
Format                                   : AVI
Format/Info                              : Audio Video Interleave
Format profile                           : OpenDML
File size                                : 2.18 GiB
Duration                                 : 1h 53mn
Overall bit rate                         : 2 746 Kbps
Writing application                      : VirtualDubMod 1.5.10.3 | www.virtualdub-fr.org || (build 2550/release)
Writing library                          : VirtualDubMod build 2550/release

Video
ID                                       : 0
Format                                   : MPEG-4 Visual
Format profile                           : Advanced Simple@L5
Format settings, BVOP                    : 2
Format settings, QPel                    : No
Format settings, GMC                     : No warppoints
Format settings, Matrix                  : Custom
Codec ID                                 : XVID
Codec ID/Hint                            : XviD
Duration                                 : 1h 53mn
Bit rate                                 : 1 960 Kbps
Width                                    : 720 pixels
Height                                   : 304 pixels
Display aspect ratio                     : 2.35:1
Frame rate                               : 23.976 (23976/1000) fps
Color space                              : YUV
Chroma subsampling                       : 4:2:0
Bit depth                                : 8 bits
Scan type                                : Progressive
Compression mode                         : Lossy
Bits/(Pixel*Frame)                       : 0.374
Stream size                              : 1.56 GiB (71%)
Writing library                          : XviD 67

Audio #1
ID                                       : 1
Format                                   : AC-3
Format/Info                              : Audio Coding 3
Mode extension                           : CM (complete main)
Format settings, Endianness              : Big
Codec ID                                 : 2000
Duration                                 : 1h 53mn
Bit rate mode                            : Constant
Bit rate                                 : 384 Kbps
Channel(s)                               : 6 channels
Channel positions                        : Front: L C R, Side: L R, LFE
Sampling rate                            : 48.0 KHz
Frame rate                               : 31.250 fps (1536 spf)
Compression mode                         : Lossy
Stream size                              : 313 MiB (14%)
Alignment                                : Split accross interleaves
Interleave, duration                     : 42 ms (1.00 video frame)
Interleave, preload duration             : 500 ms

Audio #2
ID                                       : 2
Format                                   : AC-3
Format/Info                              : Audio Coding 3
Mode extension                           : CM (complete main)
Format settings, Endianness              : Big
Codec ID                                 : 2000
Duration                                 : 1h 53mn
Bit rate mode                            : Constant
Bit rate                                 : 384 Kbps
Channel(s)                               : 6 channels
Channel positions                        : Front: L C R, Side: L R, LFE
Sampling rate                            : 48.0 KHz
Frame rate                               : 31.250 fps (1536 spf)
Compression mode                         : Lossy
Stream size                              : 313 MiB (14%)
Alignment                                : Split accross interleaves
Interleave, duration                     : 42 ms (1.00 video frame)
Interleave, preload duration             : 500 ms



Релиз групп


_________________



реклама партнёра


Вернуться к началу
 Профиль Отправить личное сообщение  
 
   Похожие торренты   Автор   Торрент   Размер 
В этой теме нет новых непрочитанных сообщений. На гребне волны / Point Break [боевик, триллер, криминал, спорт, 2015] BDRip 1080p, Dub+Sub [лицензия]

salma3

316 | 10

9.11 ГБ

В этой теме нет новых непрочитанных сообщений. На гребне волны / Point Break [боевик, триллер, криминал, спорт, 2015] BDRip 720p, Dub+Sub [лицензия]

salma3

236 | 10

5.83 ГБ

В этой теме нет новых непрочитанных сообщений. На гребне волны / Point Break [боевик, триллер, криминал, спорт, 2015] HDRip, Dub [лицензия]

salma3

11923 | 582

1.46 ГБ

В этой теме нет новых непрочитанных сообщений. На гребне волны / Point Break [боевик, триллер, криминал, спорт, 2015] HDRip, Dub [лицензия]

salma3

4333 | 146

2.19 ГБ

В этой теме нет новых непрочитанных сообщений. На гребне волны / Point Break [боевик, триллер, криминал, спорт, 2015] Blu-ray 3D-Video, Dub+Sub [Лицензия]

salma3

140 | 151

39.11 ГБ

В этой теме нет новых непрочитанных сообщений. На гребне волны / Point Break [Боевик, триллер, криминал, спорт, 2015] HDRip, Dub [Лицензия]

salma3

14 | 5

748.72 МБ

В этой теме нет новых непрочитанных сообщений. На гребне волны / Point Break [боевик, триллер, криминал, спорт, 2015] DVD5, Dub [лицензия]

salma3

1 | 1

4.37 ГБ


СообщениеДобавлено: 13 мар 2016, 21:01 

Не в сети
Дата регистрации:
02 май 2013, 21:59
Спасибо: 0 / 0
Сообщения: 53
Зачем снимать второй раз один и тот же фильм.Первый всё равно лучшим останеться.


Вернуться к началу
 Профиль Отправить личное сообщение  
 
Начать новую тему Ответить на тему  [ Сообщений: 2 ] 




Для Мосгорсуда, Роскомнадзора и рекламодателей:: mosgorsud-torrent[собачка]yandex.ru