Торрент файл
скачать торрент магнет ссылка Добавлен: 13 мар 2016, 13:26
Размер: 1.46 ГБ
Сидеров: 20
Личеров: 7
Статус: (salma3)
Автор

СообщениеДобавлено: 13 мар 2016, 13:26 

Не в сети
Супермодератор
Аватара пользователя
Дата регистрации:
15 фев 2012, 16:44
Возраст: 27
Спасибо: 5143 / 2090
Сообщения: 17514
Наркотик / Dope

Год выпуска: 2015
Жанр: драма, комедия, криминал
Режиссер: Рик Фамуйива / Rick Famuyiwa

В ролях: Раким Мэйерс, Блейк Андерсон, Брюс Битти, Де’андре Бондс, Джулиан Брэнд, Куинси Браун, Кирси Клемонс, Кимберли Элиз, Рик Фокс, Кристофер Гленн...

Описание: В центре истории подросток, мечтающий учиться в Гарварде, однако живет он в преступном района Инглвуда, откуда выбраться не так уж и просто.



Страна: США
Продолжительность: 01:43:18
Перевод: Профессиональный (многоголосый закадровый)

Файл
Качество: BDRip
Формат файла: AVI
Видео кодек: XviD
Аудио кодек: AC3
Видео: 720x304 (2.37:1), 23.976 fps, XviD build 73 ~1815 kbps avg, 0.35 bit/pixel
Аудио: 48 kHz, AC3 Dolby Digital, 2/0 (L,R) ch, ~192 kbps


Сэмпл:

Формат : AVI
Формат/Информация : Audio Video Interleave
Размер файла : 1,46 Гбайт
Продолжительность : 1 ч. 43 м.
Общий поток : 2017 Кбит/сек
Программа кодирования : VirtualDubMod 1.5.10.3 | http://www.virtualdub-fr.org || (build 2550/release)
Библиотека кодирования : VirtualDubMod build 2550/release

Видео
Идентификатор : 0
Формат : MPEG-4 Visual
Профиль формата : Advanced Simple@L5
Параметр BVOP формата : 1
Параметр QPel формата : Нет
Параметр GMC формата : Без точки перехода
Параметр матрицы формата : Default (MPEG)
Идентификатор кодека : XVID
Идентификатор кодека/Подсказка : XviD
Продолжительность : 1 ч. 43 м.
Битрейт : 1816 Кбит/сек
Ширина : 720 пикселей
Высота : 304 пикселя
Соотношение сторон : 2,35:1
Частота кадров : 23,976 (23976/1000) кадра/сек
Цветовое пространство : YUV
Субдискретизация насыщенности : 4:2:0
Битовая глубина : 8 бит
Тип развёртки : Прогрессивная
Метод сжатия : С потерями
Бит/(Пиксели*Кадры) : 0.346
Размер потока : 1,31 Гбайт (90%)
Библиотека кодирования : XviD 73

Аудио
Идентификатор : 1
Формат : AC-3
Формат/Информация : Audio Coding 3
Расширение режима : CM (complete main)
Параметр Endianness формата : Big
Идентификатор кодека : 2000
Продолжительность : 1 ч. 43 м.
Вид битрейта : Постоянный
Битрейт : 192 Кбит/сек
Каналы : 2 канала
Расположение каналов : Front: L R
Частота : 48,0 КГц
Частота кадров : 31,250 кадров/сек (1536 spf)
Метод сжатия : С потерями
Размер потока : 142 Мбайт (10%)
Выравнивание : Разделение по промежуткам
Продолжительность промежутка : 42 мс. (1,00 видеокадр)
Время предзагрузки промежутка : 500 мс.


_________________



реклама партнёра


Вернуться к началу
 Профиль Отправить личное сообщение  
 
   Похожие торренты   Автор   Торрент   Размер 
В этой теме нет новых непрочитанных сообщений. Наркотик / Dope (Рик Фамуйива) [драма, комедия, криминал, 2015] BDRip 1080p, Mvo

Dracon

128 | 22

27.1 ГБ

В этой теме нет новых непрочитанных сообщений. Наркотик / Dope (Рик Фамуйива) [драма, комедия, криминал, 2015] BDRip 1080p, Mvo [iTunes]

Dracon

85 | 13

7.71 ГБ

В этой теме нет новых непрочитанных сообщений. Наркотик / Dope (Рик Фамуйива) [драма, комедия, криминал, 2015] BDRip 720p, Mvo [iTunes]

Dracon

11 | 1

4.65 ГБ

В этой теме нет новых непрочитанных сообщений. Наркотик / Dope (Рик Фамуйива) [драма, комедия, криминал, 2015] HDRip, Mvo [iTunes]

Dracon

199 | 9

1.37 ГБ

В этой теме нет новых непрочитанных сообщений. Фокус / Focus (Гленн Фикарра, Джон Рекуа) [драма, мелодрама, комедия, криминал, 2015] BDRip 1080p, Dub+Sub [Лицензия]

Dracon

152 | 24

14.14 ГБ

В этой теме нет новых непрочитанных сообщений. Фокус / Focus (Гленн Фикарра, Джон Рекуа) [драма, мелодрама, комедия, криминал, 2015] BDRip 1080p, Dub+Sub [iTunes]

Dracon

0 | 0

8.07 ГБ

В этой теме нет новых непрочитанных сообщений. Фокус / Focus (Гленн Фикарра, Джон Рекуа) [драма, мелодрама, комедия, криминал, 2015] BDRip 720p, Dub+Sub [Лицензия]

Dracon

1602 | 251

4.38 ГБ


Начать новую тему Ответить на тему  [ 1 сообщение ] 




Для Мосгорсуда, Роскомнадзора и рекламодателей:: mosgorsud-torrent[собачка]yandex.ru