Торрент файл
скачать торрент магнет ссылка Добавлен: 13 мар 2016, 13:16
Размер: 2.18 ГБ
Сидеров: 44
Личеров: 2
Статус: (salma3)
Автор

СообщениеДобавлено: 13 мар 2016, 13:16 

Не в сети
Супермодератор
Аватара пользователя
Дата регистрации:
15 фев 2012, 16:44
Возраст: 27
Спасибо: 5134 / 2089
Сообщения: 17379
Перевод: Профессиональный (полное дублирование), субтитры: отсутствуют
Формат: HDRip-AVC, MKV, H.264, AC3
Страна: США, Индонезия
Режиссер: Джон Хаддлс
Жанр: фантастика, триллер
Продолжительность: 01:46:38
Год выпуска: 2013

В ролях: Бонни Райт, Фредди Строма, Майя Митчелл, Кэти Финдлей, Дэрил Сабара, Риз Уэйкфилд, Джеймс Д’Арси, Софи Лоу, Эрин Мориарти, Джейкоб Артист, Цинта Лаура Кил, Джордж Благден

Описание: В международной школе в Джакарте таинственный учитель философии в качестве выпускного экзамена предлагает 20 студентам провести эксперимент. Этот опыт будет самым экстремальным, с которым они когда-либо сталкивались.
Используя только силу логики, студенты должны выбрать, кто из них будет достоин получить место в подземном бункере - единственном месте, где можно спастись от приближающейся ядерной катастрофы. Бункер рассчитан на десять человек, а значит, тех, кого не выбирают, ожидает жестокая смерть. Реальность классной комнаты эффектно перетекает в воображаемый, но в то же время пугающий мир надвигающегося апокалипсиса...




Видео: 1032x430 (2.40:1), 24.000 fps, AVC (x264) , ~2038 kbps avg, 0.191 bit/pixel
Аудио #1: Русский:48 kHz, AC3 Dolby Digital, 3/2 (L,C,R,l,r) + LFE ch, ~448 kbps [Профессиональный (полное дублирование)]
Аудио #2: Английский:48 kHz, AC3 Dolby Digital, 3/2 (L,C,R,l,r) + LFE ch, ~448 kbps [Оригинал]

General
Unique ID : 186997320793940490262642348569056074918 (0x8CAE5FBC162AB6D2B943E6D00B295CA6)
Complete name : C:\Users\Юрик\Downloads\Filosofy.urok.vyjivaniya.2013.D.HDRip-AVC_[tfile.ru].mkv
Format : Matroska
Format version : Version 2
File size : 2.18 GiB
Duration : 1h 46mn
Overall bit rate : 2 927 Kbps
Encoded date : UTC 2014-01-19 17:18:43
Writing application : mkvmerge v5.8.0 ('No Sleep / Pillow') built on Sep 2 2012 15:37:04
Writing library : libebml v1.2.3 + libmatroska v1.3.0

Video
ID : 1
Format : AVC
Format/Info : Advanced Video Codec
Format profile :
Format settings, CABAC : Yes
Format settings, ReFrames : 12 frames
Codec ID : V_MPEG4/ISO/AVC
Duration : 1h 46mn
Bit rate : 2 038 Kbps
Width : 1 032 pixels
Height : 430 pixels
Display aspect ratio : 2.40:1
Frame rate mode : Constant
Frame rate : 24.000 fps
Color space : YUV
Chroma subsampling : 4:2:0
Bit depth : 8 bits
Scan type : Progressive
Bits/(Pixel*Frame) : 0.191
Stream size : 1.47 GiB (67%)
Writing library : x264 core 138 r2358 9e941d1
Encoding settings : cabac=1 / ref=12 / deblock=1:-2:-2 / analyse=0x3:0x113 / me=umh / subme=11 / psy=1 / psy_rd=1.00:0.15 / mixed_ref=1 / me_range=48 / chroma_me=1 / trellis=2 / 8x8dct=1 / cqm=0 / deadzone=21,11 / fast_pskip=1 / chroma_qp_offset=-3 / threads=12 / lookahead_threads=3 / sliced_threads=0 / nr=0 / decimate=1 / interlaced=0 / bluray_compat=0 / constrained_intra=0 / bframes=12 / b_pyramid=2 / b_adapt=2 / b_bias=0 / direct=3 / weightb=1 / open_gop=0 / weightp=2 / keyint=250 / keyint_min=24 / scenecut=40 / intra_refresh=0 / rc_lookahead=40 / rc=2pass / mbtree=0 / bitrate=2038 / ratetol=1.0 / qcomp=0.60 / qpmin=0 / qpmax=69 / qpstep=4 / cplxblur=20.0 / qblur=0.5 / vbv_maxrate=50000 / vbv_bufsize=62500 / nal_hrd=none / ip_ratio=1.40 / pb_ratio=1.30 / aq=2:1.00
Language : English
Default : Yes
Forced : No

Audio #1
ID : 2
Format : AC-3
Format/Info : Audio Coding 3
Mode extension : CM (complete main)
Format settings, Endianness : Big
Codec ID : A_AC3
Duration : 1h 46mn
Bit rate mode : Constant
Bit rate : 448 Kbps
Channel(s) : 6 channels
Channel positions : Front: L C R, Side: L R, LFE
Sampling rate : 48.0 KHz
Frame rate : 31.250 fps (1536 spf)
Compression mode : Lossy
Stream size : 342 MiB (15%)
Title : Дублированное [лицензия]
Language : Russian
Default : Yes
Forced : No

Audio #2
ID : 3
Format : AC-3
Format/Info : Audio Coding 3
Mode extension : CM (complete main)
Format settings, Endianness : Big
Codec ID : A_AC3
Duration : 1h 46mn
Bit rate mode : Constant
Bit rate : 448 Kbps
Channel(s) : 6 channels
Channel positions : Front: L C R, Side: L R, LFE
Sampling rate : 48.0 KHz
Frame rate : 31.250 fps (1536 spf)
Compression mode : Lossy
Stream size : 342 MiB (15%)
Title : English
Language : English
Default : No
Forced : No




_________________



реклама партнёра


Вернуться к началу
 Профиль Отправить личное сообщение  
 
   Похожие торренты   Автор   Торрент   Размер 
В этой теме нет новых непрочитанных сообщений. Философы: Урок выживания / The Philosophers [Фантастика, триллер, 2013] DVD5, Dub [Лицензия]

Dracon

23 | 3

4.27 ГБ

В этой теме нет новых непрочитанных сообщений. Философы: Урок выживания / The Philosophers [Фантастика, триллер, 2013] BDRip 720p, Dub+Sub [Лицензия]

salma3

6 | 2

2.77 ГБ

В этой теме нет новых непрочитанных сообщений. Урок выживания / Detention [Боевик, триллер, драма, 2003] BDRip, Dvo

salma3

155 | 19

1.45 ГБ

В этой теме нет новых непрочитанных сообщений. Урок выживания / Detention [Боевик, триллер, драма, 2003] BDRip 1080р, Dvo

salma3

52 | 5

9.52 ГБ

В этой теме нет новых непрочитанных сообщений. Темный рыцарь / The Dark Knight [Боевик, Фантастика, Триллер, Криминал, 2008] HDRip, Avo [Гаврилов]

salma3

49 | 5

2.18 ГБ

В этой теме нет новых непрочитанных сообщений. Нож для выживания / Survival Knife [ужасы, триллер, 2016] WEBRip, Avo

salma3

448 | 23

1.37 ГБ

В этой теме нет новых непрочитанных сообщений. Крестовые походы / Dark Relic [ужасы, фантастика, фэнтези, 2010] HDRip, Mvo

salma3

4 | 2

1.37 ГБ


Начать новую тему Ответить на тему  [ 1 сообщение ] 




Для Мосгорсуда, Роскомнадзора и рекламодателей:: mosgorsud-torrent[собачка]yandex.ru