Торрент файл
скачать торрент магнет ссылка Добавлен: 12 мар 2016, 21:42
Размер: 1.45 ГБ
Сидеров: 1
Личеров: 0
Статус: (salma3)
Автор

СообщениеДобавлено: 12 мар 2016, 21:42 

Не в сети
Супермодератор
Аватара пользователя
Дата регистрации:
15 фев 2012, 16:44
Возраст: 27
Спасибо: 5134 / 2089
Сообщения: 17379
Страна: США
Жанр: Боевик , военный
Год выпуска: 1991
Продолжительность: 1:27:24

Перевод: Авторский (одноголосый закадровый) С.Визгунов
Режиссер: Тед Пост / Ted Post

В ролях: Майкл Дудикофф, Томми Хинкли, Хана Азулай-Хасафри, Стив Инвуд, Ури, Гавриел, Эви Кейдар, Геула Леви, Джил Дагон, Майкл Шилло, Роберто Поллак

Описание: Северный Ирак, 1985 год. Военный специалист Даглас Мэттьюс становится свидетелем жестокой бойни, которую иракский полковник Али Даллал учинил в маленькой курдской деревушке. В память об этом дне у Али остался глубокий шрам на щеке, поскольку полковник, к собственному несчастью, подрался с Дагласом.
Затем действие фильма переносится в август 1990 года, когда затаенная злоба на Мэттьюса, которую Али холил и лелеял в душе своей, переросла все мыслимые пределы, и полковник, ставший к этому времени главным контрразведчиком Ирака, нарушая международные договоренности, прямо в Багдадском аэропорту арестовал Бена Мэттьюса, родного брата своего заклятого врага, и взял его в качестве заложника, справедливо рассчитывая, что Даглас захочет придти Бену на выручку…

Доп. информация: За звуковую дорожку спасибо Glowamy

Сэмпл: https://www.sendspace.com/file/u7eaux

Качество видео: DVDRip
Формат видео: AVI
Видео: XviD , 640x480 (1.38:1) ,25.000 fps , 2 177 Kbps
Аудио: AC3 , 48 kHz , 192.00 kbps avg , 2/0 (L,R) ch

Complete name Живой щит 1991.avi
Format : AVI
Format/Info : Audio Video Interleave
File size : 1.45 GiB
Duration : 1h 27mn
Overall bit rate : 2 379 Kbps
Writing application : VirtualDubMod 1.5.10.3 | http://www.virtualdub-fr.org || (build 2550/release)
Writing library : VirtualDub build 35491/release

Video
ID : 0
Format : MPEG-4 Visual
Format profile : Advanced Simple@L5
Format settings, BVOP : 1
Format settings, QPel : No
Format settings, GMC : No warppoints
Format settings, Matrix : Custom
Codec ID : XVID
Codec ID/Hint : XviD
Duration : 1h 27mn
Bit rate : 2 177 Kbps
Width : 640 pixels
Height : 480 pixels
Display aspect ratio : 4:3
Frame rate : 25.000 fps
Color space : YUV
Chroma subsampling : 4:2:0
Bit depth : 8 bits
Scan type : Progressive
Compression mode : Lossy
Bits/(Pixel*Frame) : 0.283
Stream size : 1.33 GiB (92%)
Writing library : XviD 73

Audio
ID : 1
Format : AC-3
Format/Info : Audio Coding 3
Mode extension : CM (complete main)
Format settings, Endianness : Big
Codec ID : 2000
Duration : 1h 27mn
Bit rate mode : Constant
Bit rate : 192 Kbps
Channel(s) : 2 channels
Channel positions : Front: L R
Sampling rate : 48.0 KHz
Frame rate : 31.250 fps (1536 spf)
Compression mode : Lossy
Stream size : 120 MiB (8%)
Alignment : Aligned on interleaves
Interleave, duration : 40 ms (1.00 video frame)
Interleave, preload duratio : 512 ms


_________________



реклама партнёра


Вернуться к началу
 Профиль Отправить личное сообщение  
 
   Похожие торренты   Автор   Торрент   Размер 
В этой теме нет новых непрочитанных сообщений. Живой щит / Защитник / The Human Shield [Боевик, драма, приключения, 1991] DVD-5, Dvo [Лицензия]

salma3

0 | 5

4.09 ГБ

В этой теме нет новых непрочитанных сообщений. МакБэйн / McBain [боевик, драма, военный, 1991] BDRip 1080p, Avo

salma3

0 | 2

7.95 ГБ

В этой теме нет новых непрочитанных сообщений. МакБэйн / McBain [боевик, драма, военный, 1991] BDRemux 1080p, Avo

salma3

0 | 2

21.98 ГБ

В этой теме нет новых непрочитанных сообщений. Человеческий род / The Human Race [Ужасы, фантастика, боевик, 2013] DVDRip, avo

Dracon

109 | 7

1.29 ГБ

В этой теме нет новых непрочитанных сообщений. Человек-бомба / Human Timebomb [Боевик, триллер, драма, 1995] DVDRip, Avo

salma3

7 | 2

1.45 ГБ

В этой теме нет новых непрочитанных сообщений. Карта человеческого сердца / Map of the Human Heart [Драма, приключения, мелодрама, военный, 1993] BDRip 1080p, Dvo+Sub

salma3

12 | 10

13.5 ГБ

В этой теме нет новых непрочитанных сообщений. Кровавый кулак 5: Живая мишень / Bloodfist V: Human Target [ Боевик, боевые искуства, 1994] DVDRip, Mvo [РЕН-ТВ]

salma3

69 | 20

1.36 ГБ


Начать новую тему Ответить на тему  [ 1 сообщение ] 




Для Мосгорсуда, Роскомнадзора и рекламодателей:: mosgorsud-torrent[собачка]yandex.ru