Торрент файл
скачать торрент магнет ссылка Добавлен: 12 мар 2016, 12:41
Размер: 1.46 ГБ
Сидеров: 3
Личеров: 1
Статус: (salma3)
Автор

СообщениеДобавлено: 12 мар 2016, 12:41 

В сети
Супермодератор
Аватара пользователя
Дата регистрации:
15 фев 2012, 16:44
Возраст: 27
Спасибо: 5136 / 2089
Сообщения: 17409
Страна: США
Жанр: драма
Год выпуска: 1997
Продолжительность: 02:03:42

Перевод: Профессиональный (двухголосый закадровый)
Режиссер: Джонни Депп / Johnny Depp

В ролях: Джонни Депп, Марлон Брандо, Маршалл Белл, Элпидия Каррильо, Фредерик Форрест, Кларенс Уильямс III, Макс Перлих, Луис Гузман, Коуди Лайтнинг, Николь Мансера

Описание: Моргантаун – огромная свалка на окраине американской цивилизации. Здесь в беспросветной нищете обитает семья Рафаэля. Маккарти – продюсер нового фильма, в котором он предполагает заснять натуральное убийство. Исполнителю главной роли обещан огромный гонорар. Рафаэль принимает предложение. До начала съемок осталось 7 дней…

Сэмпл: http://multi-up.com/1092678

Качество видео: BDRip Blu-Ray.Remux.1080p - HDClub
Формат видео: AVI
Видео: 720x400 (1.80:1), 24 fps, XviD build 73 ~1482 kbps avg, 0.21 bit/pixel
Аудио: 48 kHz, AC3 Dolby Digital, 2/0 (L,R) ch, ~192 kbps



Формат : AVI
Формат/Информация : Audio Video Interleave
Размер файла : 1,46 Гбайт
Продолжительность : 2 ч. 3 м.
Общий поток : 1684 Кбит/сек
Программа кодирования : VirtualDubMod 1.5.10.3 | http://www.virtualdub-fr.org || (build 2550/release)
Библиотека кодирования : VirtualDubMod build 2550/release

Видео
Идентификатор : 0
Формат : MPEG-4 Visual
Профиль формата : Advanced Simple@L5
Параметр BVOP формата : 1
Параметр QPel формата : Нет
Параметр GMC формата : Без точки перехода
Параметр матрицы формата : Выборочная
Идентификатор кодека : XVID
Идентификатор кодека/Подсказка : XviD
Продолжительность : 2 ч. 3 м.
Битрейт : 1483 Кбит/сек
Ширина : 720 пикселей
Высота : 400 пикселей
Соотношение сторон : 16:9
Частота кадров : 24,000 кадра/сек
Цветовое пространство : YUV
Субдискретизация насыщенности : 4:2:0
Битовая глубина : 8 бит
Тип развёртки : Прогрессивная
Метод сжатия : С потерями
Бит/(Пиксели*Кадры) : 0.215
Размер потока : 1,28 Гбайт (88%)
Библиотека кодирования : XviD 73

Аудио
Идентификатор : 1
Формат : AC-3
Формат/Информация : Audio Coding 3
Расширение режима : CM (complete main)
Параметр Endianness формата : Big
Идентификатор кодека : 2000
Продолжительность : 2 ч. 3 м.
Вид битрейта : Постоянный
Битрейт : 192 Кбит/сек
Каналы : 2 канала
Расположение каналов : Front: L R
Частота : 48,0 КГц
Частота кадров : 31,250 кадров/сек (1536 spf)
Метод сжатия : С потерями
Размер потока : 170 Мбайт (11%)
Выравнивание : Разделение по промежуткам
Продолжительность промежутка : 42 мс. (1,00 видеокадр)
Время предзагрузки промежутка : 500 мс.


_________________



реклама партнёра


Вернуться к началу
 Профиль Отправить личное сообщение  
 
   Похожие торренты   Автор   Торрент   Размер 
В этой теме нет новых непрочитанных сообщений. Одинокие отважны / Lonely are the brave [драма, вестерн, 1962] BDRemux 1080p, Avo+Sub

salma3

32 | 11

12.95 ГБ

В этой теме нет новых непрочитанных сообщений. 187 / One Eight Seven [триллер, драма, 1997] BDRip 1080p, Dvo+Avo+Sub

salma3

50 | 7

12.75 ГБ

В этой теме нет новых непрочитанных сообщений. Лолита / Lolita [драма, мелодрама, 1997] BDRip 1080p, Mvo+Dub+Sub

salma3

33 | 5

16.58 ГБ

В этой теме нет новых непрочитанных сообщений. Лолита / Lolita [драма, мелодрама, 1997] BDRip 720p, Mvo+Dub+Sub

salma3

109 | 11

7.76 ГБ

В этой теме нет новых непрочитанных сообщений. В погоне за Эми / Chasing Amy [драма, мелодрама, комедия, 1997] BDRip 1080p, Mvo+Avo+Sub

salma3

9 | 7

17.53 ГБ

В этой теме нет новых непрочитанных сообщений. В погоне за Эми / Chasing Amy [драма, мелодрама, комедия, 1997] BDRip 720p, Mvo+Avo+Sub

salma3

27 | 9

9.05 ГБ

В этой теме нет новых непрочитанных сообщений. Кундун / Kundun [Драма, военный, биография, история, 1997] BDRip 1080p, Mvo+Avo+Sub

salma3

7 | 3

11.17 ГБ


Начать новую тему Ответить на тему  [ 1 сообщение ] 




Для Мосгорсуда, Роскомнадзора и рекламодателей:: mosgorsud-torrent[собачка]yandex.ru