Торрент файл
скачать торрент магнет ссылка Добавлен: 12 мар 2016, 12:39
Размер: 1.18 ГБ
Сидеров: 1
Личеров: 0
Статус: (salma3)
Автор

СообщениеДобавлено: 12 мар 2016, 12:39 

Не в сети
Супермодератор
Аватара пользователя
Дата регистрации:
15 фев 2012, 16:44
Возраст: 27
Спасибо: 5121 / 2089
Сообщения: 17296
Страна: США
Жанр: Драма , криминал
Год выпуска: 1996
Продолжительность: 1:22:56

Перевод: Авторский (одноголосый закадровый) А.Алексеев
Режиссер: Джефф Блекнер / Jeff Bleckner

В ролях: Уэнди Маккена, Стивен Коллинз, Дэмиан Чапа, Лара Харрис, Лиз Коук, Фрэнк, Винсент, Жан-Клод Ла Марр, Фэй Грант, Алан Розенберг,Луис Гусман

Описание: Когда её брат взял пол миллиона долларов из семейного бизнеса, молодая дизайнер вынуждена сотрудничать с техасским акционером , он же босс мафии для того, чтобы удержать компанию на плаву.

Доп. информация: За звуковую дорожку спасибо Glowamy

Сэмпл: https://www.sendspace.com/file/owb9h8

Качество видео: VHSRip
Формат видео: AVI
Видео: XviD , 672x512 (1.33:1) ,25.000 fps , 1 840 Kbps
Аудио: AC3 , 48 kHz , 192.00 kbps avg , 2/0 (L,R) ch
Complete name На седьмой авеню 1996.avi
Format : AVI
Format/Info : Audio Video Interleave
File size : 1.18 GiB
Duration : 1h 22mn
Overall bit rate : 2 041 Kbps
Writing library : VirtualDub build 35491/release

Video
ID : 0
Format : MPEG-4 Visual
Format profile : Advanced Simple@L5
Format settings, BVOP : 2
Format settings, QPel : No
Format settings, GMC : No warppoints
Format settings, Matrix : Default (H.263)
Codec ID : XVID
Codec ID/Hint : XviD
Duration : 1h 22mn
Bit rate : 1 840 Kbps
Width : 672 pixels
Height : 512 pixels
Display aspect ratio : 4:3
Frame rate : 25.000 fps
Color space : YUV
Chroma subsampling : 4:2:0
Bit depth : 8 bits
Scan type : Progressive
Compression mode : Lossy
Bits/(Pixel*Frame) : 0.214
Stream size : 1.07 GiB (90%)
Writing library : XviD 67

Audio
ID : 1
Format : AC-3
Format/Info : Audio Coding 3
Mode extension : CM (complete main)
Format settings, Endianness : Big
Codec ID : 2000
Duration : 1h 22mn
Bit rate mode : Constant
Bit rate : 192 Kbps
Channel(s) : 2 channels
Channel positions : Front: L R
Sampling rate : 48.0 KHz
Frame rate : 31.250 fps (1536 spf)
Compression mode : Lossy
Stream size : 114 MiB (9%)
Alignment : Aligned on interleaves
Interleave, duration : 40 ms (1.00 video frame)
Interleave, preload duratio : 512 ms


_________________



реклама партнёра


Вернуться к началу
 Профиль Отправить личное сообщение  
 
   Похожие торренты   Автор   Торрент   Размер 
В этой теме нет новых непрочитанных сообщений. Пленник Второй авеню / The Prisoner of Second Avenue [комедия, 1975] DVDRip, Mvo

salma3

18 | 4

1.46 ГБ

В этой теме нет новых непрочитанных сообщений. Седьмой сын / Seventh Son (Сергей Бодров) [фэнтези, приключения, 2014] WEB-DL 1080p, Dub [iTunes]

Dracon

118 | 10

3.64 ГБ

В этой теме нет новых непрочитанных сообщений. Седьмой сын / Seventh Son (Сергей Бодров) [фэнтези, приключения, 2014] HDRip, Dub [Лицензия]

Dracon

394 | 25

2.06 ГБ

В этой теме нет новых непрочитанных сообщений. Седьмой сын / Seventh Son (Сергей Бодров) [фэнтези, приключения, 2014] WEB-DLRip-AVC, Dub [iTunes]

Dracon

1304 | 35

1.86 ГБ

В этой теме нет новых непрочитанных сообщений. Седьмой сын / Seventh Son (Сергей Бодров) [фэнтези, приключения, 2014] DVD9, Dub+Sub [Лицензия]

Dracon

0 | 0

5.86 ГБ

В этой теме нет новых непрочитанных сообщений. Седьмой сын / Seventh Son (Сергей Бодров) [фэнтези, приключения, 2014] HDRip-AVC, Dub+Sub [Лицензия]

Dracon

667 | 50

2 ГБ

В этой теме нет новых непрочитанных сообщений. Седьмой сын / Seventh Son (Сергей Бодров) [фэнтези, приключения, 2014] HDRip, Dub [iTunes]

Dracon

403 | 18

1.46 ГБ


Начать новую тему Ответить на тему  [ 1 сообщение ] 




Для Мосгорсуда, Роскомнадзора и рекламодателей:: mosgorsud-torrent[собачка]yandex.ru